<?xml version="1.0" standalone="no"?>
<!DOCTYPE svg PUBLIC "-//W3C//DTD SVG 1.1//EN" "http://www.w3.org/Graphics/SVG/1.1/DTD/svg11.dtd" >
<svg xmlns="http://www.w3.org/2000/svg" xmlns:xlink="http://www.w3.org/1999/xlink" version="1.1">
<metadata>
Created by FontForge 20170731 at Fri Jun  7 21:01:53 2019
 By Aleksey,,,
Copyright (c) 2019 by Lisa Fischbach, Jakob Runge and Nils Thomsen. All rights reserved.
</metadata>
<defs>
<font id="HalvarEng-Lt" horiz-adv-x="446" >
  <font-face 
    font-family="Halvar Eng Lt"
    font-weight="300"
    font-stretch="condensed"
    units-per-em="1000"
    panose-1="0 0 4 6 0 0 0 0 0 0"
    ascent="800"
    descent="-200"
    x-height="494"
    cap-height="656"
    bbox="-150 -204 1073 913"
    underline-thickness="50"
    underline-position="-200"
    unicode-range="U+0020-FB02"
  />
<missing-glyph horiz-adv-x="436" 
d="M68 656h81l-149 -149v81zM287 656h81l-368 -368v80zM436 588v-81l-436 -437v80zM436 288l-286 -288h-80l366 368v-80zM436 70l-68 -70h-80l148 150v-80z" />
    <glyph glyph-name=".notdef" horiz-adv-x="436" 
d="M68 656h81l-149 -149v81zM287 656h81l-368 -368v80zM436 588v-81l-436 -437v80zM436 288l-286 -288h-80l366 368v-80zM436 70l-68 -70h-80l148 150v-80z" />
    <glyph glyph-name=".null" horiz-adv-x="0" 
 />
    <glyph glyph-name="nonmarkingreturn" horiz-adv-x="333" 
 />
    <glyph glyph-name="space" unicode=" " horiz-adv-x="230" 
 />
    <glyph glyph-name="exclam" unicode="!" horiz-adv-x="254" 
d="M163 656l-3 -493h-66l-3 493h72zM92.5 2.5q-13.5 13.5 -13.5 34.5t13.5 34.5t34.5 13.5t34.5 -13t13.5 -35t-13.5 -35t-34.5 -13t-34.5 13.5z" />
    <glyph glyph-name="quotedbl" unicode="&#x22;" horiz-adv-x="486" 
d="M178 696l-2 -246h-68l-2 246h72zM381 696l-3 -246h-68l-2 246h73z" />
    <glyph glyph-name="numbersign" unicode="#" horiz-adv-x="649" 
d="M492 443l-13 -230h98v-65h-102l-9 -148h-67l9 148h-188l-9 -148h-66l9 148h-101v65h104l14 230h-99v65h102l9 148h67l-9 -148h189l8 148h67l-9 -148h100v-65h-104zM412 212l14 232h-190l-14 -232h190z" />
    <glyph glyph-name="dollar" unicode="$" horiz-adv-x="490" 
d="M394 288q34 -40 34 -96v-16q0 -62 -40 -104t-106 -52v-80h-71v79q-70 9 -110 52.5t-40 110.5v24h69v-24q0 -46 31 -73.5t84 -27.5q50 0 81.5 25.5t31.5 65.5v12q0 37 -23 63.5t-79 48.5l-51 20q-69 27 -101 64.5t-32 92.5v16q0 58 38.5 98t100.5 49v81h71v-80
q66 -9 104 -51t38 -106v-24h-69v21q0 46 -29 72.5t-79 26.5q-46 0 -75.5 -24.5t-29.5 -62.5v-11q0 -35 20.5 -57.5t74.5 -43.5l51 -21q72 -28 106 -68z" />
    <glyph glyph-name="percent" unicode="%" horiz-adv-x="726" 
d="M73 379q-32 32 -32 89v74q0 57 32.5 89t89.5 32t89 -31.5t32 -89.5v-74q0 -57 -31.5 -89t-89.5 -32t-90 32zM230 474v61q0 36 -17 55t-50 19t-50 -19t-17 -55v-61q0 -73 67 -73t67 73zM473 26q-32 32 -32 89v74q0 57 32.5 89t89.5 32t89 -31.5t32 -89.5v-74
q0 -57 -31.5 -89t-89.5 -32t-90 32zM630 121v61q0 36 -17 55t-50 19t-50 -19t-17 -55v-61q0 -73 67 -73t67 73zM549 656h60v-11l-432 -645h-60v11z" />
    <glyph glyph-name="ampersand" unicode="&#x26;" horiz-adv-x="539" 
d="M520 353l-120 -208l110 -134v-11h-76l-70 86q-36 -51 -75.5 -74t-91.5 -23q-71 0 -115.5 40.5t-44.5 106.5v19q0 44 24 83.5t78 84.5l18 15l-28 34q-32 39 -45.5 71t-13.5 69v19q0 61 42 98.5t111 37.5q68 0 109 -37.5t41 -98.5v-19q0 -41 -20 -75.5t-70 -78.5l-33 -29
l106 -130l94 165h70v-11zM138 512q0 -24 10 -48t33 -51l29 -35l28 25q40 35 53.5 57.5t13.5 51.5v13q0 36 -22.5 57t-61.5 21q-38 0 -60.5 -21t-22.5 -57v-13zM265 71q25 18 56 67l-124 151l-18 -15q-42 -36 -57.5 -62t-15.5 -58v-13q0 -40 26.5 -64t69.5 -24q38 0 63 18z
" />
    <glyph glyph-name="quotesingle" unicode="'" horiz-adv-x="284" 
d="M179 696l-3 -246h-68l-2 246h73z" />
    <glyph glyph-name="parenleft" unicode="(" horiz-adv-x="326" 
d="M136.5 -0.5q-53.5 63.5 -53.5 166.5v324q0 102 54 166t147 68v-64q-62 -3 -97.5 -49t-35.5 -123v-320q0 -77 35.5 -123t97.5 -49v-64q-94 4 -147.5 67.5z" />
    <glyph glyph-name="parenright" unicode=")" horiz-adv-x="326" 
d="M189.5 656.5q53.5 -63.5 53.5 -166.5v-324q0 -102 -54 -166t-147 -68v64q62 3 97.5 49t35.5 123v320q0 77 -35.5 123t-97.5 49v64q94 -4 147.5 -67.5z" />
    <glyph glyph-name="asterisk" unicode="*" horiz-adv-x="385" 
d="M244 524l101 -56l-29 -47l-101 65l5 -119h-56l4 118l-99 -64l-29 47l101 56l-101 58l29 47l100 -65l-5 119h56l-5 -119l101 65l29 -47z" />
    <glyph glyph-name="plus" unicode="+" horiz-adv-x="490" 
d="M447 295h-170v-179h-65v179h-170v66h170v180h66v-180h169v-66z" />
    <glyph glyph-name="comma" unicode="," horiz-adv-x="284" 
d="M199 113v-11l-69 -235h-63l53 246h79z" />
    <glyph glyph-name="hyphen" unicode="-" horiz-adv-x="334" 
d="M271 308v-63h-208v63h208z" />
    <glyph glyph-name="period" unicode="." horiz-adv-x="284" 
d="M108 2.5q-14 13.5 -14 34.5t13.5 34.5t34.5 13.5t34.5 -13t13.5 -35q0 -21 -13.5 -34.5t-34.5 -13.5q-20 0 -34 13.5z" />
    <glyph glyph-name="slash" unicode="/" horiz-adv-x="485" 
d="M340 721h64v-13l-259 -773h-64v13z" />
    <glyph glyph-name="zero" unicode="0" horiz-adv-x="488" 
d="M116 35q-48 46 -48 123v339q0 77 48 123.5t128 46.5q81 0 128.5 -46.5t47.5 -123.5v-339q0 -77 -48 -123t-128 -46t-128 46zM320.5 83.5q28.5 29.5 28.5 79.5v328q0 50 -28 80t-77 30q-48 0 -76.5 -29.5t-28.5 -80.5v-328q0 -50 28.5 -79.5t76.5 -29.5t76.5 29.5z" />
    <glyph glyph-name="one" unicode="1" horiz-adv-x="318" 
d="M235 0h-72v534q-32 -18 -76 -18h-61v66h60q37 0 57 19.5t20 54.5h72v-656z" />
    <glyph glyph-name="two" unicode="2" horiz-adv-x="428" 
d="M391 65v-65h-340v66l135 168q68 86 94 139.5t26 110.5v10q0 52 -25.5 80t-72.5 28q-46 0 -71.5 -28t-25.5 -79v-27h-70v27q0 82 44 127t124 45q79 0 123 -45t44 -126v-10q0 -67 -29 -128.5t-107 -159.5l-106 -133h257z" />
    <glyph glyph-name="three" unicode="3" horiz-adv-x="436" 
d="M384 591l-167 -196h1q75 0 119.5 -41.5t44.5 -112.5v-87q0 -75 -48 -120t-126 -45q-79 0 -126 44t-47 121v26h70v-25q0 -47 28.5 -74t74.5 -27q47 0 75.5 29t28.5 78v69q0 47 -28 74t-80 27h-76v57l171 203h-252v65h337v-65z" />
    <glyph glyph-name="four" unicode="4" horiz-adv-x="501" 
d="M470 149h-79v-149h-72v149h-269v65q41 110 67 215.5t41 226.5h70v-11q-27 -225 -106 -431h197v325h72v-325h79v-65z" />
    <glyph glyph-name="five" unicode="5" horiz-adv-x="456" 
d="M368.5 368q44.5 -42 44.5 -116v-97q0 -79 -46 -122.5t-129 -43.5t-128.5 43t-45.5 122v11h70v-11q0 -48 27 -74t77 -26q49 0 77 27.5t28 75.5v83q0 50 -28 78t-78 28q-42 0 -68 -24t-29 -66h-70l19 400h306v-65h-242l-10 -210q41 29 104 29q77 0 121.5 -42z" />
    <glyph glyph-name="six" unicode="6" horiz-adv-x="475" 
d="M353 486v10q0 50 -28 78t-78 28q-51 0 -79.5 -27.5t-28.5 -77.5v-130q45 39 115 39q77 0 123.5 -43t46.5 -116v-88q0 -80 -47 -125t-130 -45t-131 46t-48 126v334q0 80 48 126t131 46q84 0 130.5 -45t46.5 -126v-10h-71zM183 326q-28 -15 -44 -42v-122q0 -50 29 -79
t79 -29q49 0 77.5 29t28.5 79v78q0 46 -29 73.5t-78 27.5q-35 0 -63 -15z" />
    <glyph glyph-name="seven" unicode="7" horiz-adv-x="380" 
d="M345 656v-65q-70 -147 -112.5 -302t-42.5 -265v-24h-70v24q0 111 42.5 264t114.5 303h-263v65h331z" />
    <glyph glyph-name="eight" unicode="8" horiz-adv-x="471" 
d="M394 283q21 -34 21 -79v-58q0 -72 -49 -114.5t-130 -42.5q-82 0 -131.5 42.5t-49.5 114.5v58q0 45 21.5 79t60.5 52q-36 19 -55 52t-19 77v48q0 74 46 114.5t127 40.5q80 0 126.5 -40.5t46.5 -114.5v-48q0 -45 -19 -78t-55 -51q38 -18 59 -52zM130 463q0 -97 106 -97
q51 0 77.5 24.5t26.5 72.5v44q0 48 -26.5 72.5t-77.5 24.5t-78.5 -24.5t-27.5 -72.5v-44zM346 205q0 45 -30 71t-80 26t-81 -26.5t-31 -70.5v-54q0 -45 31 -71.5t81 -26.5q49 0 79.5 26.5t30.5 71.5v54z" />
    <glyph glyph-name="nine" unicode="9" horiz-adv-x="475" 
d="M359 621q48 -46 48 -126v-334q0 -80 -48 -126t-131 -46q-84 0 -130.5 45t-46.5 126v10h71v-10q0 -50 28 -78t78 -28q51 0 79.5 27.5t28.5 77.5v130q-45 -39 -115 -39q-77 0 -123.5 43t-46.5 116v88q0 80 47 125t130 45t131 -46zM292 330q28 15 44 42v122q0 50 -29 79
t-79 29q-49 0 -77.5 -29t-28.5 -79v-78q0 -46 29 -73.5t78 -27.5q35 0 63 15z" />
    <glyph glyph-name="colon" unicode=":" horiz-adv-x="324" 
d="M128 2.5q-14 13.5 -14 34.5t13.5 34.5t34.5 13.5t34.5 -13t13.5 -35q0 -21 -13.5 -34.5t-34.5 -13.5q-20 0 -34 13.5zM128 396.5q-14 13.5 -14 34.5t13.5 34.5t34.5 13.5t34.5 -13t13.5 -35q0 -21 -13.5 -34.5t-34.5 -13.5q-20 0 -34 13.5z" />
    <glyph glyph-name="semicolon" unicode=";" horiz-adv-x="324" 
d="M209 113v-11l-69 -235h-63l53 246h79zM128 396.5q-14 13.5 -14 34.5t13.5 34.5t34.5 13.5t34.5 -13t13.5 -35q0 -21 -13.5 -34.5t-34.5 -13.5q-20 0 -34 13.5z" />
    <glyph glyph-name="less" unicode="&#x3c;" horiz-adv-x="490" 
d="M432 456l-308 -128l308 -128v-66h-11l-378 156v76l378 156h11v-66z" />
    <glyph glyph-name="equal" unicode="=" horiz-adv-x="490" 
d="M437 469v-66h-385v66h385zM437 253v-66h-385v66h385z" />
    <glyph glyph-name="greater" unicode="&#x3e;" horiz-adv-x="490" 
d="M447 366v-76l-378 -156h-11v66l308 128l-308 128v66h11z" />
    <glyph glyph-name="question" unicode="?" horiz-adv-x="421" 
d="M182.5 304q16.5 36 62.5 87q31 34 42.5 57.5t11.5 50.5v14q0 41 -24.5 65.5t-65.5 24.5q-45 0 -69 -24.5t-24 -70.5v-46h-68v47q0 75 42.5 116.5t119.5 41.5q72 0 114.5 -41t42.5 -109v-18q0 -38 -14.5 -68t-52.5 -73q-41 -48 -54.5 -76t-13.5 -67v-52h-66v57
q0 48 16.5 84zM166 2.5q-14 13.5 -14 34.5t13.5 34.5t34.5 13.5t34.5 -13t13.5 -35t-13.5 -35t-34.5 -13q-20 0 -34 13.5z" />
    <glyph glyph-name="at" unicode="@" horiz-adv-x="818" 
d="M664.5 583q89.5 -84 89.5 -240v-171q0 -62 -34 -98.5t-93 -36.5q-38 0 -66.5 13.5t-43.5 38.5q-19 -28 -49.5 -43t-69.5 -15q-67 0 -110 43t-43 110v146q0 67 43 110.5t110 43.5q69 0 110 -44l3 33h55v-318q0 -28 16.5 -43t45.5 -15q30 0 46.5 20t16.5 57v172
q0 128 -70.5 194.5t-206.5 66.5q-139 0 -211 -67.5t-72 -197.5v-170q0 -123 69 -188.5t198 -65.5h130v-59h-130q-102 0 -176.5 37.5t-114 107.5t-39.5 167v172q0 156 89.5 240t253.5 84t253.5 -84zM462.5 106.5q25.5 14.5 39.5 39.5v221q-14 26 -39 41t-55 15
q-45 0 -72 -28.5t-27 -76.5v-123q0 -47 27 -75t72 -28q29 0 54.5 14.5z" />
    <glyph glyph-name="A" unicode="A" horiz-adv-x="499" 
d="M465 11v-11h-72l-42 163h-202l-42 -163h-72v11l174 645h83zM334 228l-84 327l-84 -327h168z" />
    <glyph glyph-name="B" unicode="B" horiz-adv-x="483" 
d="M412 278.5q25 -39.5 25 -94.5v-20q0 -76 -47 -120t-130 -44h-191v656h180q84 0 130.5 -41.5t46.5 -117.5v-20q0 -52 -22 -88t-63 -54q46 -17 71 -56.5zM140 591v-226h103q54 0 83 27.5t29 78.5v18q0 102 -114 102h-101zM365 191q0 52 -29.5 81t-82.5 29h-113v-236h112
q55 0 84 27.5t29 79.5v19z" />
    <glyph glyph-name="C" unicode="C" horiz-adv-x="502" 
d="M118 38q-50 49 -50 136v307q0 87 50.5 136.5t138.5 49.5q93 0 141.5 -51t48.5 -149v-60h-72v60q0 67 -30 101t-88 34q-57 0 -87.5 -33t-30.5 -93v-297q0 -60 30.5 -92.5t87.5 -32.5q58 0 88 33.5t30 97.5v63h72v-63q0 -96 -49 -146t-141 -50q-89 0 -139 49z" />
    <glyph glyph-name="D" unicode="D" horiz-adv-x="497" 
d="M238 656q90 0 140.5 -49.5t50.5 -139.5v-279q0 -89 -50.5 -138.5t-140.5 -49.5h-169v656h169zM327.5 98q30.5 33 30.5 94v272q0 61 -30.5 94t-87.5 33h-100v-526h100q57 0 87.5 33z" />
    <glyph glyph-name="E" unicode="E" horiz-adv-x="429" 
d="M398 656v-65h-258v-231h244v-65h-244v-230h258v-65h-329v656h329z" />
    <glyph glyph-name="F" unicode="F" horiz-adv-x="421" 
d="M397 656v-65h-257v-240h243v-65h-243v-286h-71v656h328z" />
    <glyph glyph-name="G" unicode="G" horiz-adv-x="521" 
d="M377 443v33q0 59 -31 92.5t-86 33.5q-57 0 -89 -33t-32 -92v-298q0 -59 31.5 -91.5t88.5 -32.5q39 0 69 16.5t49 47.5v157h-144v64h214v-340h-59l-4 43q-48 -54 -128 -54q-86 0 -137 50t-51 135v307q0 87 51.5 136.5t140.5 49.5t138.5 -50t49.5 -141v-33h-71z" />
    <glyph glyph-name="H" unicode="H" horiz-adv-x="499" 
d="M140 656v-296h219v296h71v-656h-71v295h-219v-295h-71v656h71z" />
    <glyph glyph-name="I" unicode="I" horiz-adv-x="220" 
d="M146 656v-656h-72v656h72z" />
    <glyph glyph-name="J" unicode="J" horiz-adv-x="459" 
d="M89.5 35q-45.5 46 -45.5 129v87h71v-87q0 -53 26.5 -81.5t75.5 -28.5t76 28t27 78v431h-210v65h280v-502q0 -77 -46.5 -121t-126.5 -44q-82 0 -127.5 46z" />
    <glyph glyph-name="K" unicode="K" horiz-adv-x="496" 
d="M455 11v-11h-72l-168 303l-75 -110v-193h-71v656h71v-338l239 338h75v-11l-193 -280z" />
    <glyph glyph-name="L" unicode="L" horiz-adv-x="416" 
d="M140 656v-591h266v-65h-337v656h71z" />
    <glyph glyph-name="M" unicode="M" horiz-adv-x="629" 
d="M560 0h-69v518l-150 -518h-52l-151 519v-519h-69v656h92l153 -515l154 515h92v-656z" />
    <glyph glyph-name="N" unicode="N" horiz-adv-x="499" 
d="M430 656v-656h-75l-218 507v-507h-68v656h75l218 -511v511h68z" />
    <glyph glyph-name="O" unicode="O" horiz-adv-x="512" 
d="M118 38.5q-50 49.5 -50 135.5v307q0 87 50.5 136.5t137.5 49.5q88 0 138 -50t50 -136v-307q0 -86 -50 -135.5t-138 -49.5t-138 49.5zM342 87q31 33 31 92v297q0 60 -30.5 93t-86.5 33t-86.5 -33t-30.5 -93v-297q0 -59 31 -92t86 -33t86 33z" />
    <glyph glyph-name="P" unicode="P" horiz-adv-x="482" 
d="M266 656q88 0 134.5 -44.5t46.5 -129.5v-20q0 -86 -46.5 -130.5t-134.5 -44.5h-126v-287h-71v656h197zM376 462v20q0 53 -29 81t-86 28h-121v-239h121q115 0 115 110z" />
    <glyph glyph-name="Q" unicode="Q" horiz-adv-x="512" 
d="M394 617q50 -50 50 -136v-307q0 -72 -35 -118.5t-99 -60.5l39 -117v-11h-65l-40 122q-83 4 -129.5 53t-46.5 132v307q0 87 50.5 136.5t137.5 49.5q88 0 138 -50zM373 476q0 60 -30.5 93t-86.5 33t-86.5 -33t-30.5 -93v-297q0 -59 31 -92t86 -33t86 33t31 92v297z" />
    <glyph glyph-name="R" unicode="R" horiz-adv-x="486" 
d="M408 339.5q-39 -43.5 -114 -50.5l151 -278v-11h-70l-156 288h-79v-288h-71v656h197q88 0 134.5 -44.5t46.5 -129.5v-20q0 -79 -39 -122.5zM376 482q0 53 -29 81t-86 28h-121v-239h121q115 0 115 110v20z" />
    <glyph glyph-name="S" unicode="S" horiz-adv-x="458" 
d="M93 36.5q-47 47.5 -47 135.5v30h69v-30q0 -57 29 -87.5t83 -30.5q53 0 83.5 27.5t30.5 75.5v12q0 42 -22.5 71.5t-78.5 54.5l-49 22q-70 32 -102.5 72t-32.5 98v17q0 74 48 118.5t130 44.5t128 -45.5t46 -127.5v-30h-70v30q0 53 -26 81t-79 28q-50 0 -78 -25.5t-28 -71.5
v-11q0 -39 20.5 -66t72.5 -50l51 -22q74 -33 107.5 -75.5t33.5 -105.5v-17q0 -78 -49.5 -124t-135.5 -46q-87 0 -134 47.5z" />
    <glyph glyph-name="T" unicode="T" horiz-adv-x="404" 
d="M10 591v65h384v-65h-156v-591h-72v591h-156z" />
    <glyph glyph-name="U" unicode="U" horiz-adv-x="495" 
d="M114.5 35q-45.5 46 -45.5 133v488h71v-487q0 -56 27.5 -85.5t80.5 -29.5q52 0 79.5 29.5t27.5 85.5v487h71v-488q0 -88 -45.5 -133.5t-132.5 -45.5q-88 0 -133.5 46z" />
    <glyph glyph-name="V" unicode="V" horiz-adv-x="498" 
d="M464 656v-11l-174 -645h-82l-173 645v11h71l143 -542l143 542h72z" />
    <glyph glyph-name="W" unicode="W" horiz-adv-x="782" 
d="M748 656v-11l-153 -645h-83l-121 523l-121 -523h-82l-153 645v11h70l125 -542l127 542h69l127 -540l125 540h70z" />
    <glyph glyph-name="X" unicode="X" horiz-adv-x="496" 
d="M455 11v-11h-72l-135 273l-136 -273h-71v11l161 319l-160 315v11h72l134 -269l133 269h72v-11l-158 -315z" />
    <glyph glyph-name="Y" unicode="Y" horiz-adv-x="454" 
d="M429 645l-166 -369v-276h-72v276l-166 369v11h69l133 -295l133 295h69v-11z" />
    <glyph glyph-name="Z" unicode="Z" horiz-adv-x="426" 
d="M380 591l-261 -526h261v-65h-335v65l262 526h-256v65h329v-65z" />
    <glyph glyph-name="bracketleft" unicode="[" horiz-adv-x="304" 
d="M262 721v-64h-122v-658h122v-64h-193v786h193z" />
    <glyph glyph-name="backslash" unicode="\" horiz-adv-x="485" 
d="M81 721h64l259 -773v-13h-64l-259 773v13z" />
    <glyph glyph-name="bracketright" unicode="]" horiz-adv-x="304" 
d="M42 -1h122v658h-122v64h193v-786h-193v64z" />
    <glyph glyph-name="asciicircum" unicode="^" horiz-adv-x="406" 
d="M373 382v-10h-66l-104 207l-104 -207h-66v10l140 274h60z" />
    <glyph glyph-name="underscore" unicode="_" horiz-adv-x="371" 
d="M324 -66v-63h-277v63h277z" />
    <glyph glyph-name="grave" unicode="`" horiz-adv-x="600" 
d="M170 693l260 -66v-62l-260 66v62z" />
    <glyph glyph-name="a" unicode="a" horiz-adv-x="462" 
d="M457 63v-63h-45q-69 0 -93 47q-43 -58 -129 -58q-66 0 -104.5 36.5t-38.5 100.5q0 62 38 97.5t118 48.5l104 17v53q0 98 -93 98q-47 0 -72 -25.5t-25 -73.5v-10h-68v10q0 79 42 121.5t121 42.5q80 0 121.5 -42t41.5 -124v-221q0 -55 50 -55h32zM263 68.5q30 19.5 44 51.5
v113l-89 -15q-53 -9 -78.5 -31.5t-25.5 -59.5q0 -36 22 -57t60 -21q37 0 67 19.5z" />
    <glyph glyph-name="b" unicode="b" horiz-adv-x="454" 
d="M357 462.5q42 -42.5 42 -113.5v-205q0 -70 -42 -112.5t-111 -42.5q-74 0 -116 48l-4 -37h-60v696h69v-237q41 46 111 46q69 0 111 -42.5zM330 338q0 47 -26.5 74.5t-71.5 27.5q-30 0 -56 -15.5t-41 -42.5v-271q16 -26 41.5 -41.5t55.5 -15.5q45 0 71.5 27.5t26.5 74.5
v182z" />
    <glyph glyph-name="c" unicode="c" horiz-adv-x="442" 
d="M100.5 31.5q-44.5 42.5 -44.5 117.5v194q0 76 44 119t123 43q78 0 122 -43t44 -119v-39h-69v36q0 46 -26 73t-71 27t-71.5 -27t-26.5 -73v-188q0 -44 27 -71t71 -27q45 0 71 26.5t26 71.5v35h69v-38q0 -74 -44 -117t-122 -43t-122.5 42.5z" />
    <glyph glyph-name="d" unicode="d" horiz-adv-x="454" 
d="M390 696v-696h-61l-3 36q-44 -47 -116 -47q-69 0 -111.5 42.5t-42.5 112.5v205q0 71 42.5 113.5t110.5 42.5q71 0 112 -47v238h69zM280 69.5q26 15.5 41 42.5v269q-15 27 -41 43t-57 16q-45 0 -71.5 -27.5t-26.5 -74.5v-182q0 -47 26.5 -74.5t71.5 -27.5q31 0 57 15.5z
" />
    <glyph glyph-name="e" unicode="e" 
d="M124 224v-76q0 -44 27 -69.5t72 -25.5q46 0 72.5 26.5t26.5 75.5h68q-1 -80 -45.5 -123t-121.5 -43q-78 0 -122.5 42.5t-44.5 117.5v194q0 76 44.5 119t122.5 43t122.5 -43t44.5 -119v-119h-266zM151.5 414q-27.5 -26 -27.5 -70v-62h198v62q0 45 -27 70.5t-72 25.5
q-44 0 -71.5 -26z" />
    <glyph glyph-name="f" unicode="f" horiz-adv-x="348" 
d="M339 430h-145v-430h-69v430h-120v64h120v75q0 63 32.5 95t95.5 32h51v-63h-44q-32 0 -49 -18t-17 -52v-69h145v-64z" />
    <glyph glyph-name="g" unicode="g" horiz-adv-x="454" 
d="M390 494v-514q0 -77 -44 -119t-125 -42q-82 0 -125 42t-43 121v10h69v-10q0 -98 100 -98q47 0 73 25t26 71v94q-21 -23 -50.5 -35.5t-62.5 -12.5q-70 0 -111.5 43t-41.5 114v170q0 69 42 110.5t112 41.5q77 0 117 -54l3 43h61zM280 106.5q26 16.5 41 44.5v228
q-15 28 -41 44.5t-57 16.5q-45 0 -72 -28.5t-27 -75.5v-142q0 -47 27 -75.5t72 -28.5q31 0 57 16.5z" />
    <glyph glyph-name="h" unicode="h" horiz-adv-x="459" 
d="M357.5 464.5q39.5 -40.5 39.5 -115.5v-349h-69v338q0 102 -95 102q-30 0 -56 -15.5t-42 -42.5v-382h-69v696h69v-239q21 23 50.5 35.5t62.5 12.5q70 0 109.5 -40.5z" />
    <glyph glyph-name="i" unicode="i" horiz-adv-x="210" 
d="M139 494v-494h-68v494h68zM69.5 593q-14.5 14 -14.5 36t14.5 36t35.5 14q22 0 36 -13.5t14 -36.5q0 -22 -14 -36t-36 -14q-21 0 -35.5 14z" />
    <glyph glyph-name="j" unicode="j" horiz-adv-x="210" 
d="M-1 -106q35 0 53.5 19t18.5 54v527h68v-532q0 -61 -35 -96.5t-96 -35.5h-62v64h53zM69.5 593q-14.5 14 -14.5 36t14.5 36t35.5 14q22 0 36 -13.5t14 -36.5q0 -22 -14 -36t-36 -14q-21 0 -35.5 14z" />
    <glyph glyph-name="k" unicode="k" 
d="M419 11v-11h-74l-136 230l-74 -93v-137h-69v696h69v-449l205 247h74v-11l-159 -199z" />
    <glyph glyph-name="l" unicode="l" horiz-adv-x="232" 
d="M71 108v588h68v-577q0 -29 11 -42.5t38 -13.5h39v-63h-49q-107 0 -107 108z" />
    <glyph glyph-name="m" unicode="m" horiz-adv-x="702" 
d="M607.5 465q38.5 -40 38.5 -116v-349h-69v338q0 102 -92 102q-30 0 -56 -15t-42 -41q2 -22 2 -35v-349h-69v338q0 102 -91 102q-30 0 -56 -16t-41 -42v-382h-69v494h60l4 -42q21 26 51.5 39.5t66.5 13.5q44 0 76 -17t49 -50q21 32 54.5 49.5t76.5 17.5q68 0 106.5 -40z
" />
    <glyph glyph-name="n" unicode="n" horiz-adv-x="459" 
d="M358.5 464.5q38.5 -40.5 38.5 -115.5v-349h-69v338q0 51 -23 76.5t-72 25.5q-30 0 -56.5 -15.5t-41.5 -41.5v-383h-69v494h60l4 -43q21 26 51.5 40t66.5 14q72 0 110.5 -40.5z" />
    <glyph glyph-name="o" unicode="o" 
d="M101.5 30.5q-45.5 41.5 -45.5 118.5v194q0 78 45.5 120t121.5 42t121.5 -42t45.5 -120v-194q0 -77 -45.5 -118.5t-121.5 -41.5t-121.5 41.5zM294 80q27 26 27 72v188q0 48 -27 74t-71 26t-71 -26t-27 -74v-188q0 -46 27 -72t71 -26t71 26z" />
    <glyph glyph-name="p" unicode="p" horiz-adv-x="454" 
d="M357 464q42 -41 42 -111v-213q0 -70 -42 -110.5t-111 -40.5q-68 0 -111 41v-200h-69v664h60l4 -41q20 25 50 38.5t67 13.5q68 0 110 -41zM330 338q0 47 -26.5 74.5t-71.5 27.5q-30 0 -56 -15.5t-41 -42.5v-271q16 -26 41.5 -41.5t55.5 -15.5q45 0 71.5 27.5t26.5 74.5
v182z" />
    <glyph glyph-name="q" unicode="q" horiz-adv-x="454" 
d="M390 494v-664h-69v201q-42 -42 -112 -42q-68 0 -110.5 40.5t-42.5 110.5v213q0 70 42 111t110 41q76 0 117 -53l4 42h61zM280 69.5q26 15.5 41 42.5v269q-15 27 -41 43t-57 16q-45 0 -71.5 -27.5t-26.5 -74.5v-182q0 -47 26.5 -74.5t71.5 -27.5q31 0 57 15.5z" />
    <glyph glyph-name="r" unicode="r" horiz-adv-x="307" 
d="M297 494v-64h-57q-37 0 -62.5 -16t-38.5 -46v-368h-68v494h59l4 -45q42 45 106 45h57z" />
    <glyph glyph-name="s" unicode="s" horiz-adv-x="427" 
d="M93.5 27q-42.5 38 -42.5 107v19h68v-19q0 -39 25.5 -61t69.5 -22q42 0 67.5 20t25.5 53v9q0 32 -19 50.5t-63 31.5l-48 14q-116 33 -116 132v13q0 60 42 95.5t114 35.5q74 0 116 -38t42 -105v-19h-68v19q0 37 -25 59t-66 22q-40 0 -63.5 -18.5t-23.5 -49.5v-9
q0 -30 16.5 -48.5t53.5 -28.5l55 -15q64 -17 93 -49.5t29 -87.5v-14q0 -62 -43.5 -98t-118.5 -36q-78 0 -120.5 38z" />
    <glyph glyph-name="t" unicode="t" horiz-adv-x="348" 
d="M189 430v-293q0 -36 18 -55t50 -19h55v-63h-64q-61 0 -94 33t-33 94v303h-116v64h94q14 0 19 5.5t5 17.5v110h66v-133h146v-64h-146z" />
    <glyph glyph-name="u" unicode="u" horiz-adv-x="459" 
d="M393 494v-494h-60l-4 42q-21 -25 -51.5 -39t-66.5 -14q-72 0 -110.5 40.5t-38.5 114.5v350h69v-339q0 -50 23 -75.5t72 -25.5q30 0 56.5 15t41.5 41v384h69z" />
    <glyph glyph-name="v" unicode="v" 
d="M417 494v-11l-154 -483h-80l-154 483v11h67l127 -403l126 403h68z" />
    <glyph glyph-name="w" unicode="w" horiz-adv-x="678" 
d="M649 494v-11l-129 -483h-80l-101 380l-101 -380h-80l-129 483v11h66l104 -407l104 407h72l104 -407l104 407h66z" />
    <glyph glyph-name="x" unicode="x" horiz-adv-x="436" 
d="M402 11v-11h-71l-113 192l-113 -192h-71v11l142 238l-138 234v11h71l110 -188l109 188h71v-11l-138 -234z" />
    <glyph glyph-name="y" unicode="y" horiz-adv-x="464" 
d="M435 494v-11l-185 -550q-19 -58 -49 -80.5t-86 -22.5h-49v64h43q33 0 48.5 12t26.5 48l15 49l-170 480v11h72l134 -395l128 395h72z" />
    <glyph glyph-name="z" unicode="z" horiz-adv-x="421" 
d="M369 430l-240 -367h240v-63h-317v63l238 367h-238v64h317v-64z" />
    <glyph glyph-name="braceleft" unicode="{" horiz-adv-x="391" 
d="M161 328q63 -16 63 -100v-161q0 -68 63 -68h62v-64h-75q-55 0 -86.5 34t-31.5 91v172q0 31 -16.5 47.5t-47.5 16.5h-43v64h43q31 0 47.5 16.5t16.5 48.5v172q0 57 31.5 90.5t86.5 33.5h75v-64h-62q-63 0 -63 -68v-160q0 -84 -63 -101z" />
    <glyph glyph-name="bar" unicode="|" horiz-adv-x="260" 
d="M166 721v-786h-72v786h72z" />
    <glyph glyph-name="braceright" unicode="}" horiz-adv-x="391" 
d="M342 360v-64h-43q-31 0 -47.5 -16.5t-16.5 -48.5v-172q0 -57 -31.5 -90.5t-86.5 -33.5h-75v64h62q63 0 63 68v160q0 85 63 101q-63 17 -63 100v161q0 68 -63 68h-62v64h75q55 0 86.5 -34t31.5 -91v-172q0 -31 16.5 -47.5t47.5 -16.5h43z" />
    <glyph glyph-name="asciitilde" unicode="~" horiz-adv-x="490" 
d="M299.5 278q-22.5 5 -51.5 14q-36 10 -56.5 14.5t-45.5 4.5q-41 0 -104 -23v66q57 23 104 23q26 0 48.5 -5t54.5 -15q29 -9 51.5 -14t46.5 -5q40 0 100 21v-65q-52 -21 -100 -21q-25 0 -47.5 5z" />
    <glyph glyph-name="uni00A0" unicode="&#xa0;" horiz-adv-x="230" 
 />
    <glyph glyph-name="exclamdown" unicode="&#xa1;" horiz-adv-x="254" 
d="M92.5 422q-13.5 13 -13.5 35q0 21 13.5 34.5t34.5 13.5q20 0 34 -13.5t14 -34.5t-13.5 -34.5t-34.5 -13.5t-34.5 13zM160 331l3 -501h-72l3 501h66z" />
    <glyph glyph-name="cent" unicode="&#xa2;" horiz-adv-x="490" 
d="M363 383v27q0 50 -31 78t-86 28t-86.5 -28t-31.5 -76v-168q0 -48 31.5 -76t86.5 -28q54 0 85.5 28.5t31.5 77.5v26h70v-26q0 -73 -39.5 -117.5t-112.5 -52.5v-86h-70v86q-72 10 -112.5 53t-40.5 111v176q0 68 40.5 111t112.5 53v86h70v-86q73 -8 112.5 -52.5t39.5 -117.5
v-27h-70z" />
    <glyph glyph-name="sterling" unicode="&#xa3;" horiz-adv-x="490" 
d="M390 478v20q0 51 -24.5 77.5t-71.5 26.5q-46 0 -71.5 -29.5t-25.5 -83.5v-156h161v-63h-161v-116q0 -59 -34 -89h295v-65h-426v65h14q83 0 83 86v119h-97v63h97v155q0 85 43 132t122 47t121.5 -43.5t42.5 -125.5v-21z" />
    <glyph glyph-name="currency" unicode="&#xa4;" horiz-adv-x="490" 
d="M426 52l-82 81q-41 -25 -99 -25t-99 25l-82 -81l-50 49l85 84q-16 34 -16 74v123q0 43 17 75l-85 85l50 48l82 -82q40 26 98 26t98 -26l82 82l50 -48l-85 -85q17 -32 17 -75v-123q0 -40 -16 -74l85 -84zM314 198q25 24 25 66v113q0 43 -25 67t-69 24t-69 -24t-25 -67
v-113q0 -42 25 -66t69 -24t69 24z" />
    <glyph glyph-name="yen" unicode="&#xa5;" horiz-adv-x="490" 
d="M454 645l-157 -330h136v-59h-152v-100h152v-60h-152v-96h-72v96h-151v60h151v100h-151v59h135l-156 330v11h69l139 -295l139 295h70v-11z" />
    <glyph glyph-name="brokenbar" unicode="&#xa6;" horiz-adv-x="260" 
d="M166 721v-264h-72v264h72zM166 199v-264h-72v264h72z" />
    <glyph glyph-name="section" unicode="&#xa7;" horiz-adv-x="448" 
d="M370 250q-15 -24 -43 -39q46 -35 46 -85v-20q0 -52 -44 -84.5t-113 -32.5q-70 0 -111.5 33.5t-41.5 91.5v20h67v-20q0 -32 23 -50t64 -18t65 16t24 44v11q0 23 -16.5 40t-52.5 31l-77 31q-50 20 -73.5 48t-23.5 68v17q0 30 15 54t43 39q-46 37 -46 85v20q0 52 43.5 84.5
t113.5 32.5t111 -33.5t41 -91.5v-20h-66v20q0 32 -23 50t-64 18t-65 -16t-24 -44v-11q0 -23 16 -39.5t53 -31.5l76 -31q52 -21 75 -48.5t23 -67.5v-17q0 -30 -15 -54zM280 239q39 27 39 64v12q0 42 -63 67l-79 31l-9 4q-39 -26 -39 -64v-12q0 -22 15 -38t48 -29l79 -31z" />
    <glyph glyph-name="dieresis" unicode="&#xa8;" horiz-adv-x="600" 
d="M181.5 596.5q-12.5 12.5 -12.5 32.5t12.5 32.5t31.5 12.5q20 0 32.5 -12t12.5 -33t-12.5 -33t-32.5 -12q-19 0 -31.5 12.5zM354 596.5q-13 12.5 -13 32.5t13 32.5t32 12.5q20 0 32.5 -12.5t12.5 -32.5t-12.5 -32.5t-32.5 -12.5q-19 0 -32 12.5z" />
    <glyph glyph-name="copyright" unicode="&#xa9;" horiz-adv-x="662" 
d="M181.5 24.5q-65.5 35.5 -102 98.5t-36.5 144v122q0 81 36.5 144t102.5 98.5t149 35.5q85 0 150.5 -35t101.5 -98t36 -145v-122q0 -82 -36.5 -145t-101.5 -98t-150 -35q-84 0 -149.5 35.5zM452.5 70q52.5 28 81.5 79.5t29 119.5v117q0 68 -29 120t-81.5 80t-121.5 28
q-68 0 -120.5 -29t-82 -80.5t-29.5 -118.5v-117q0 -66 29 -118t82 -80.5t121 -28.5q69 0 121.5 28zM231 174q-37 37 -37 102v102q0 66 37.5 103.5t101.5 37.5q62 0 98.5 -38t36.5 -104v-21h-56v18q0 41 -21.5 64t-58.5 23q-38 0 -59.5 -23t-21.5 -64v-93q0 -40 21.5 -62.5
t59.5 -22.5t59 22t21 63v16h56v-21q0 -65 -36 -102t-99 -37q-65 0 -102 37z" />
    <glyph glyph-name="ordfeminine" unicode="&#xaa;" horiz-adv-x="390" 
d="M386 303v-56h-40q-54 0 -77 35q-36 -44 -107 -44q-60 0 -94.5 30t-34.5 82q0 51 32.5 79.5t102.5 40.5l88 15v43q0 78 -78 78q-40 0 -61 -20.5t-21 -60.5v-6h-61v6q0 67 36.5 102.5t105.5 35.5q140 0 140 -138v-178q0 -44 42 -44h27zM220.5 303.5q23.5 14.5 35.5 40.5v92
l-75 -13q-45 -8 -66.5 -25t-21.5 -47q0 -28 20 -45t53 -17q31 0 54.5 14.5z" />
    <glyph glyph-name="guillemotleft" unicode="&#xab;" horiz-adv-x="544" 
d="M150 277l115 -207v-11h-72l-116 212v11l116 212h72v-12zM356 277l115 -207v-11h-72l-116 212v11l116 212h72v-12z" />
    <glyph glyph-name="logicalnot" unicode="&#xac;" horiz-adv-x="490" 
d="M42 295v66h405v-235h-72v169h-333z" />
    <glyph glyph-name="uni00AD" unicode="&#xad;" horiz-adv-x="334" 
d="M271 308v-63h-208v63h208z" />
    <glyph glyph-name="registered" unicode="&#xae;" horiz-adv-x="464" 
d="M367.5 657q51.5 -50 51.5 -131v-65q0 -82 -51 -132t-135 -50q-55 0 -97.5 23t-66.5 64.5t-24 94.5v65q0 53 24 94t66.5 64t97.5 23q83 0 134.5 -50zM375 526q0 64 -38.5 101.5t-103.5 37.5t-104 -38t-39 -101v-65q0 -64 39 -102t104 -38t103.5 38t38.5 102v65zM274 475
l45 -80v-4h-42l-46 80h-28v-80h-41v206h81q75 0 75 -58v-7q0 -44 -44 -57zM203 501h40q17 0 26.5 8t9.5 22v7q0 14 -9 21.5t-27 7.5h-40v-66z" />
    <glyph glyph-name="macron" unicode="&#xaf;" horiz-adv-x="600" 
d="M430 660v-61h-260v61h260z" />
    <glyph glyph-name="degree" unicode="&#xb0;" horiz-adv-x="350" 
d="M79.5 427.5q-37.5 36.5 -37.5 93.5v16q0 57 37.5 93.5t95.5 36.5q59 0 96 -36t37 -94v-16q0 -57 -37 -93.5t-96 -36.5q-58 0 -95.5 36.5zM231.5 465.5q21.5 21.5 21.5 55.5v16q0 34 -21.5 55.5t-56.5 21.5q-34 0 -56 -21.5t-22 -55.5v-16q0 -34 22 -55.5t56 -21.5
q35 0 56.5 21.5z" />
    <glyph glyph-name="plusminus" unicode="&#xb1;" horiz-adv-x="490" 
d="M437 389v-65h-159v-168h-66v168h-160v65h160v172h66v-172h159zM52 88h385v-65h-385v65z" />
    <glyph glyph-name="uni00B2" unicode="&#xb2;" horiz-adv-x="333" 
d="M146 504q48 49 66 79t18 58v7q0 28 -18 44.5t-49 16.5q-33 0 -51 -16t-18 -43v-16h-58v17q0 54 33.5 83.5t94.5 29.5t93.5 -28.5t32.5 -82.5v-7q0 -40 -20.5 -78t-72.5 -91l-76 -79h180v-55h-257v55z" />
    <glyph glyph-name="uni00B3" unicode="&#xb3;" horiz-adv-x="333" 
d="M64.5 366q-35.5 30 -35.5 80v14h59v-10q0 -27 19.5 -43t52.5 -16q32 0 51.5 16.5t19.5 43.5v36q0 27 -20 42t-55 15h-58v38l119 119h-179v56h253v-56l-107 -107l16 -2q44 -6 67.5 -30.5t23.5 -66.5v-49q0 -50 -36 -80t-95 -30q-60 0 -95.5 30z" />
    <glyph glyph-name="acute" unicode="&#xb4;" horiz-adv-x="600" 
d="M430 693v-62l-260 -66v62z" />
    <glyph glyph-name="uni00B5" unicode="&#xb5;" horiz-adv-x="484" 
d="M481 63v-63h-47q-66 0 -92 44q-18 -26 -47 -40.5t-63 -14.5q-67 0 -97 37v-196h-69v664h69v-339q0 -101 96 -101q31 0 57 15t40 41v384h69v-376q0 -55 50 -55h34z" />
    <glyph glyph-name="paragraph" unicode="&#xb6;" horiz-adv-x="619" 
d="M386 0h-67v287h-103q-88 0 -134.5 44.5t-46.5 130.5v20q0 85 46.5 129.5t134.5 44.5h170v-656zM550 656v-656h-66v656h66z" />
    <glyph glyph-name="periodcentered" unicode="&#xb7;" horiz-adv-x="284" 
d="M108 246.5q-14 13.5 -14 34.5t13.5 34.5t34.5 13.5t34.5 -13t13.5 -35q0 -21 -13.5 -34.5t-34.5 -13.5q-20 0 -34 13.5z" />
    <glyph glyph-name="cedilla" unicode="&#xb8;" horiz-adv-x="600" 
d="M356 1l-42 -171h-71l45 182z" />
    <glyph glyph-name="uni00B9" unicode="&#xb9;" horiz-adv-x="333" 
d="M159 398v278q-17 -16 -51 -16h-78v55h80q23 0 36 11t13 30h61v-358h107v-55h-297v55h129z" />
    <glyph glyph-name="ordmasculine" unicode="&#xba;" horiz-adv-x="366" 
d="M76.5 274q-38.5 36 -38.5 101v150q0 65 38 101.5t107 36.5q68 0 106 -36.5t38 -101.5v-150q0 -65 -38 -101t-106 -36t-106.5 36zM243.5 317.5q22.5 22.5 22.5 60.5v145q0 38 -22.5 60t-60.5 22q-39 0 -61.5 -22t-22.5 -60v-145q0 -39 22.5 -61t61.5 -22q38 0 60.5 22.5z
" />
    <glyph glyph-name="guillemotright" unicode="&#xbb;" horiz-adv-x="544" 
d="M188 276l-115 207v11h72l116 -212v-11l-116 -212h-72v11zM394 276l-115 207v11h72l116 -212v-11l-116 -212h-72v11z" />
    <glyph glyph-name="onequarter" unicode="&#xbc;" horiz-adv-x="952" 
d="M159 298v278q-17 -16 -51 -16h-78v55h80q23 0 36 11t13 30h61v-358h107v-55h-297v55h129zM686 656h60v-11l-432 -645h-60v11zM641 89v55q26 65 41.5 129t24.5 141h59v-9q-16 -139 -63 -261h125v197h57v-197h63v-55h-63v-89h-57v89h-187z" />
    <glyph glyph-name="onehalf" unicode="&#xbd;" horiz-adv-x="959" 
d="M159 298v278q-17 -16 -51 -16h-78v55h80q23 0 36 11t13 30h61v-358h107v-55h-297v55h129zM686 656h60v-11l-432 -645h-60v11zM772 161q48 49 66 79t18 58v7q0 28 -18 44.5t-49 16.5q-33 0 -51 -16t-18 -43v-16h-58v17q0 54 33.5 83.5t94.5 29.5t93.5 -28.5t32.5 -82.5v-7
q0 -40 -20.5 -78t-72.5 -91l-76 -79h180v-55h-257v55z" />
    <glyph glyph-name="threequarters" unicode="&#xbe;" horiz-adv-x="918" 
d="M64.5 266q-35.5 30 -35.5 80v14h59v-10q0 -27 19.5 -43t52.5 -16q32 0 51.5 16.5t19.5 43.5v36q0 27 -20 42t-55 15h-58v38l119 119h-179v56h253v-56l-107 -107l16 -2q44 -6 67.5 -30.5t23.5 -66.5v-49q0 -50 -36 -80t-95 -30q-60 0 -95.5 30zM652 656h60v-11l-432 -645
h-60v11zM607 89v55q26 65 41.5 129t24.5 141h59v-9q-16 -139 -63 -261h125v197h57v-197h63v-55h-63v-89h-57v89h-187z" />
    <glyph glyph-name="questiondown" unicode="&#xbf;" horiz-adv-x="421" 
d="M187.5 422.5q-13.5 13.5 -13.5 34.5q0 22 13.5 35t33.5 13q21 0 34.5 -13.5t13.5 -34.5t-13.5 -34.5t-34.5 -13.5q-20 0 -33.5 13.5zM96.5 -140.5q-42.5 40.5 -42.5 109.5v18q0 38 15 70.5t52 74.5q42 48 55 77.5t13 69.5v52h66v-57q0 -49 -16 -86.5t-63 -89.5
q-30 -34 -41.5 -58t-11.5 -52v-15q0 -40 24.5 -65t64.5 -25q45 0 69 24.5t24 70.5v46h68v-47q0 -75 -42.5 -116.5t-119.5 -41.5q-72 0 -114.5 40.5z" />
    <glyph glyph-name="Agrave" unicode="&#xc0;" horiz-adv-x="499" 
d="M465 11v-11h-72l-42 163h-202l-42 -163h-72v11l174 645h83zM334 228l-84 327l-84 -327h168zM120 855l260 -66v-62l-260 66v62z" />
    <glyph glyph-name="Aacute" unicode="&#xc1;" horiz-adv-x="499" 
d="M465 11v-11h-72l-42 163h-202l-42 -163h-72v11l174 645h83zM334 228l-84 327l-84 -327h168zM380 855v-62l-260 -66v62z" />
    <glyph glyph-name="Acircumflex" unicode="&#xc2;" horiz-adv-x="499" 
d="M465 11v-11h-72l-42 163h-202l-42 -163h-72v11l174 645h83zM334 228l-84 327l-84 -327h168zM249 856l131 -63v-65l-131 62l-129 -62v65z" />
    <glyph glyph-name="Atilde" unicode="&#xc3;" horiz-adv-x="499" 
d="M465 11v-11h-72l-42 163h-202l-42 -163h-72v11l174 645h83zM334 228l-84 327l-84 -327h168zM252 761q-15 5 -30.5 9.5t-30.5 4.5q-35 0 -71 -21v60q37 22 72 22q15 0 30.5 -4.5t30.5 -9.5q40 -14 65 -14q32 0 62 15v-61q-30 -15 -62 -15q-26 0 -66 14z" />
    <glyph glyph-name="Adieresis" unicode="&#xc4;" horiz-adv-x="499" 
d="M465 11v-11h-72l-42 163h-202l-42 -163h-72v11l174 645h83zM334 228l-84 327l-84 -327h168zM131.5 758.5q-12.5 12.5 -12.5 32.5t12.5 32.5t31.5 12.5q20 0 32.5 -12t12.5 -33t-12.5 -33t-32.5 -12q-19 0 -31.5 12.5zM304 758.5q-13 12.5 -13 32.5t13 32.5t32 12.5
q20 0 32.5 -12.5t12.5 -32.5t-12.5 -32.5t-32.5 -12.5q-19 0 -32 12.5z" />
    <glyph glyph-name="Aring" unicode="&#xc5;" horiz-adv-x="499" 
d="M465 11v-11h-72l-42 163h-202l-42 -163h-72v11l174 645h83zM334 228l-84 327l-84 -327h168zM172 662.5q-30 28.5 -30 74.5t30 75.5t77 29.5q48 0 77.5 -29t29.5 -76q0 -46 -29.5 -74.5t-77.5 -28.5q-47 0 -77 28.5zM290 696.5q15 15.5 15 40.5t-15 40.5t-40 15.5
q-24 0 -40.5 -15.5t-16.5 -40.5t16 -40.5t41 -15.5t40 15.5z" />
    <glyph glyph-name="AE" unicode="&#xc6;" horiz-adv-x="657" 
d="M362 590l30 -229h214v-66h-205l30 -230h195v-65h-258l-21 163h-201l-43 -163h-68v11l172 645h419v-66h-264zM292 590h-34l-95 -362h175z" />
    <glyph glyph-name="Ccedilla" unicode="&#xc7;" horiz-adv-x="502" 
d="M118 38q-50 49 -50 136v307q0 87 50.5 136.5t138.5 49.5q93 0 141.5 -51t48.5 -149v-60h-72v60q0 67 -30 101t-88 34q-57 0 -87.5 -33t-30.5 -93v-297q0 -60 30.5 -92.5t87.5 -32.5q58 0 88 33.5t30 97.5v63h72v-63q0 -96 -49 -146t-141 -50q-89 0 -139 49zM294 1
l-42 -171h-71l45 182z" />
    <glyph glyph-name="Egrave" unicode="&#xc8;" horiz-adv-x="429" 
d="M398 656v-65h-258v-231h244v-65h-244v-230h258v-65h-329v656h329zM104 855l260 -66v-62l-260 66v62z" />
    <glyph glyph-name="Eacute" unicode="&#xc9;" horiz-adv-x="429" 
d="M398 656v-65h-258v-231h244v-65h-244v-230h258v-65h-329v656h329zM364 855v-62l-260 -66v62z" />
    <glyph glyph-name="Ecircumflex" unicode="&#xca;" horiz-adv-x="429" 
d="M398 656v-65h-258v-231h244v-65h-244v-230h258v-65h-329v656h329zM233 856l131 -63v-65l-131 62l-129 -62v65z" />
    <glyph glyph-name="Edieresis" unicode="&#xcb;" horiz-adv-x="429" 
d="M398 656v-65h-258v-231h244v-65h-244v-230h258v-65h-329v656h329zM115.5 758.5q-12.5 12.5 -12.5 32.5t12.5 32.5t31.5 12.5q20 0 32.5 -12t12.5 -33t-12.5 -33t-32.5 -12q-19 0 -31.5 12.5zM288 758.5q-13 12.5 -13 32.5t13 32.5t32 12.5q20 0 32.5 -12.5t12.5 -32.5
t-12.5 -32.5t-32.5 -12.5q-19 0 -32 12.5z" />
    <glyph glyph-name="Igrave" unicode="&#xcc;" horiz-adv-x="220" 
d="M146 656v-656h-72v656h72zM6 845l208 -46v-62l-208 46v62z" />
    <glyph glyph-name="Iacute" unicode="&#xcd;" horiz-adv-x="220" 
d="M146 656v-656h-72v656h72zM214 845v-62l-208 -46v62z" />
    <glyph glyph-name="Icircumflex" unicode="&#xce;" horiz-adv-x="220" 
d="M146 656v-656h-72v656h72zM109 854l105 -51v-65l-105 51l-103 -51v65z" />
    <glyph glyph-name="Idieresis" unicode="&#xcf;" horiz-adv-x="220" 
d="M146 656v-656h-72v656h72zM-8.5 758.5q-12.5 12.5 -12.5 32.5t12.5 32.5t31.5 12.5q20 0 32.5 -12t12.5 -33t-12.5 -33t-32.5 -12q-19 0 -31.5 12.5zM164 758.5q-13 12.5 -13 32.5t13 32.5t32 12.5q20 0 32.5 -12.5t12.5 -32.5t-12.5 -32.5t-32.5 -12.5q-19 0 -32 12.5z
" />
    <glyph glyph-name="Eth" unicode="&#xd0;" horiz-adv-x="510" 
d="M391.5 606.5q50.5 -49.5 50.5 -139.5v-279q0 -89 -50.5 -138.5t-140.5 -49.5h-169v296h-68v64h68v296h169q90 0 140.5 -49.5zM371 464q0 61 -30.5 94t-87.5 33h-100v-231h115v-64h-115v-231h100q57 0 87.5 33t30.5 94v272z" />
    <glyph glyph-name="Ntilde" unicode="&#xd1;" horiz-adv-x="499" 
d="M430 656v-656h-75l-218 507v-507h-68v656h75l218 -511v511h68zM251 761q-15 5 -30.5 9.5t-30.5 4.5q-35 0 -71 -21v60q37 22 72 22q15 0 30.5 -4.5t30.5 -9.5q40 -14 65 -14q32 0 62 15v-61q-30 -15 -62 -15q-26 0 -66 14z" />
    <glyph glyph-name="Ograve" unicode="&#xd2;" horiz-adv-x="512" 
d="M118 38.5q-50 49.5 -50 135.5v307q0 87 50.5 136.5t137.5 49.5q88 0 138 -50t50 -136v-307q0 -86 -50 -135.5t-138 -49.5t-138 49.5zM342 87q31 33 31 92v297q0 60 -30.5 93t-86.5 33t-86.5 -33t-30.5 -93v-297q0 -59 31 -92t86 -33t86 33zM126 855l260 -66v-62l-260 66
v62z" />
    <glyph glyph-name="Oacute" unicode="&#xd3;" horiz-adv-x="512" 
d="M118 38.5q-50 49.5 -50 135.5v307q0 87 50.5 136.5t137.5 49.5q88 0 138 -50t50 -136v-307q0 -86 -50 -135.5t-138 -49.5t-138 49.5zM342 87q31 33 31 92v297q0 60 -30.5 93t-86.5 33t-86.5 -33t-30.5 -93v-297q0 -59 31 -92t86 -33t86 33zM386 855v-62l-260 -66v62z" />
    <glyph glyph-name="Ocircumflex" unicode="&#xd4;" horiz-adv-x="512" 
d="M118 38.5q-50 49.5 -50 135.5v307q0 87 50.5 136.5t137.5 49.5q88 0 138 -50t50 -136v-307q0 -86 -50 -135.5t-138 -49.5t-138 49.5zM342 87q31 33 31 92v297q0 60 -30.5 93t-86.5 33t-86.5 -33t-30.5 -93v-297q0 -59 31 -92t86 -33t86 33zM255 856l131 -63v-65l-131 62
l-129 -62v65z" />
    <glyph glyph-name="Otilde" unicode="&#xd5;" horiz-adv-x="512" 
d="M118 38.5q-50 49.5 -50 135.5v307q0 87 50.5 136.5t137.5 49.5q88 0 138 -50t50 -136v-307q0 -86 -50 -135.5t-138 -49.5t-138 49.5zM342 87q31 33 31 92v297q0 60 -30.5 93t-86.5 33t-86.5 -33t-30.5 -93v-297q0 -59 31 -92t86 -33t86 33zM258 761q-15 5 -30.5 9.5
t-30.5 4.5q-35 0 -71 -21v60q37 22 72 22q15 0 30.5 -4.5t30.5 -9.5q40 -14 65 -14q32 0 62 15v-61q-30 -15 -62 -15q-26 0 -66 14z" />
    <glyph glyph-name="Odieresis" unicode="&#xd6;" horiz-adv-x="512" 
d="M118 38.5q-50 49.5 -50 135.5v307q0 87 50.5 136.5t137.5 49.5q88 0 138 -50t50 -136v-307q0 -86 -50 -135.5t-138 -49.5t-138 49.5zM342 87q31 33 31 92v297q0 60 -30.5 93t-86.5 33t-86.5 -33t-30.5 -93v-297q0 -59 31 -92t86 -33t86 33zM137.5 758.5
q-12.5 12.5 -12.5 32.5t12.5 32.5t31.5 12.5q20 0 32.5 -12t12.5 -33t-12.5 -33t-32.5 -12q-19 0 -31.5 12.5zM310 758.5q-13 12.5 -13 32.5t13 32.5t32 12.5q20 0 32.5 -12.5t12.5 -32.5t-12.5 -32.5t-32.5 -12.5q-19 0 -32 12.5z" />
    <glyph glyph-name="multiply" unicode="&#xd7;" horiz-adv-x="490" 
d="M290 328l137 -137l-46 -46l-137 137l-136 -136l-47 46l137 136l-137 137l46 46l137 -137l137 137l47 -46z" />
    <glyph glyph-name="Oslash" unicode="&#xd8;" horiz-adv-x="512" 
d="M430 560.5q14 -35.5 14 -79.5v-307q0 -86 -51 -135.5t-137 -49.5q-39 0 -74 11l-22 -65h-67v13l29 87q-54 49 -54 139v307q0 87 50.5 136.5t137.5 49.5q42 0 76 -12l22 66h66v-12l-30 -89q26 -24 40 -59.5zM136 179q0 -44 17 -73l161 484q-25 12 -58 12q-56 0 -88 -33
t-32 -93v-297zM376 476q0 42 -17 73l-161 -484q27 -11 58 -11q57 0 88.5 32.5t31.5 92.5v297z" />
    <glyph glyph-name="Ugrave" unicode="&#xd9;" horiz-adv-x="495" 
d="M114.5 35q-45.5 46 -45.5 133v488h71v-487q0 -56 27.5 -85.5t80.5 -29.5q52 0 79.5 29.5t27.5 85.5v487h71v-488q0 -88 -45.5 -133.5t-132.5 -45.5q-88 0 -133.5 46zM120 855l260 -66v-62l-260 66v62z" />
    <glyph glyph-name="Uacute" unicode="&#xda;" horiz-adv-x="495" 
d="M114.5 35q-45.5 46 -45.5 133v488h71v-487q0 -56 27.5 -85.5t80.5 -29.5q52 0 79.5 29.5t27.5 85.5v487h71v-488q0 -88 -45.5 -133.5t-132.5 -45.5q-88 0 -133.5 46zM380 855v-62l-260 -66v62z" />
    <glyph glyph-name="Ucircumflex" unicode="&#xdb;" horiz-adv-x="495" 
d="M114.5 35q-45.5 46 -45.5 133v488h71v-487q0 -56 27.5 -85.5t80.5 -29.5q52 0 79.5 29.5t27.5 85.5v487h71v-488q0 -88 -45.5 -133.5t-132.5 -45.5q-88 0 -133.5 46zM249 856l131 -63v-65l-131 62l-129 -62v65z" />
    <glyph glyph-name="Udieresis" unicode="&#xdc;" horiz-adv-x="495" 
d="M114.5 35q-45.5 46 -45.5 133v488h71v-487q0 -56 27.5 -85.5t80.5 -29.5q52 0 79.5 29.5t27.5 85.5v487h71v-488q0 -88 -45.5 -133.5t-132.5 -45.5q-88 0 -133.5 46zM131.5 758.5q-12.5 12.5 -12.5 32.5t12.5 32.5t31.5 12.5q20 0 32.5 -12t12.5 -33t-12.5 -33t-32.5 -12
q-19 0 -31.5 12.5zM304 758.5q-13 12.5 -13 32.5t13 32.5t32 12.5q20 0 32.5 -12.5t12.5 -32.5t-12.5 -32.5t-32.5 -12.5q-19 0 -32 12.5z" />
    <glyph glyph-name="Yacute" unicode="&#xdd;" horiz-adv-x="454" 
d="M429 645l-166 -369v-276h-72v276l-166 369v11h69l133 -295l133 295h69v-11zM357 855v-62l-260 -66v62z" />
    <glyph glyph-name="Thorn" unicode="&#xde;" horiz-adv-x="482" 
d="M400.5 467.5q46.5 -44.5 46.5 -129.5v-20q0 -86 -46.5 -130.5t-134.5 -44.5h-126v-143h-71v656h71v-144h126q88 0 134.5 -44.5zM376 338q0 109 -115 109h-121v-238h121q115 0 115 109v20z" />
    <glyph glyph-name="germandbls" unicode="&#xdf;" horiz-adv-x="468" 
d="M404.5 300.5q24.5 -37.5 24.5 -91.5v-52q0 -76 -45.5 -116.5t-132.5 -40.5h-41v63h36q56 0 85 26.5t29 77.5v48q0 50 -31 76t-90 26h-29v64h22q47 0 73.5 28.5t26.5 79.5v49q0 49 -26 76.5t-72 27.5t-72.5 -27.5t-26.5 -76.5v-538h-69v541q0 77 44.5 121.5t123.5 44.5
q77 0 122 -44.5t45 -121.5v-47q0 -48 -17 -83t-50 -55q46 -18 70.5 -55.5z" />
    <glyph glyph-name="agrave" unicode="&#xe0;" horiz-adv-x="462" 
d="M457 63v-63h-45q-69 0 -93 47q-43 -58 -129 -58q-66 0 -104.5 36.5t-38.5 100.5q0 62 38 97.5t118 48.5l104 17v53q0 98 -93 98q-47 0 -72 -25.5t-25 -73.5v-10h-68v10q0 79 42 121.5t121 42.5q80 0 121.5 -42t41.5 -124v-221q0 -55 50 -55h32zM263 68.5q30 19.5 44 51.5
v113l-89 -15q-53 -9 -78.5 -31.5t-25.5 -59.5q0 -36 22 -57t60 -21q37 0 67 19.5zM91 693l260 -66v-62l-260 66v62z" />
    <glyph glyph-name="aacute" unicode="&#xe1;" horiz-adv-x="462" 
d="M457 63v-63h-45q-69 0 -93 47q-43 -58 -129 -58q-66 0 -104.5 36.5t-38.5 100.5q0 62 38 97.5t118 48.5l104 17v53q0 98 -93 98q-47 0 -72 -25.5t-25 -73.5v-10h-68v10q0 79 42 121.5t121 42.5q80 0 121.5 -42t41.5 -124v-221q0 -55 50 -55h32zM263 68.5q30 19.5 44 51.5
v113l-89 -15q-53 -9 -78.5 -31.5t-25.5 -59.5q0 -36 22 -57t60 -21q37 0 67 19.5zM351 693v-62l-260 -66v62z" />
    <glyph glyph-name="acircumflex" unicode="&#xe2;" horiz-adv-x="462" 
d="M457 63v-63h-45q-69 0 -93 47q-43 -58 -129 -58q-66 0 -104.5 36.5t-38.5 100.5q0 62 38 97.5t118 48.5l104 17v53q0 98 -93 98q-47 0 -72 -25.5t-25 -73.5v-10h-68v10q0 79 42 121.5t121 42.5q80 0 121.5 -42t41.5 -124v-221q0 -55 50 -55h32zM263 68.5q30 19.5 44 51.5
v113l-89 -15q-53 -9 -78.5 -31.5t-25.5 -59.5q0 -36 22 -57t60 -21q37 0 67 19.5zM220 694l131 -63v-65l-131 62l-129 -62v65z" />
    <glyph glyph-name="atilde" unicode="&#xe3;" horiz-adv-x="462" 
d="M457 63v-63h-45q-69 0 -93 47q-43 -58 -129 -58q-66 0 -104.5 36.5t-38.5 100.5q0 62 38 97.5t118 48.5l104 17v53q0 98 -93 98q-47 0 -72 -25.5t-25 -73.5v-10h-68v10q0 79 42 121.5t121 42.5q80 0 121.5 -42t41.5 -124v-221q0 -55 50 -55h32zM263 68.5q30 19.5 44 51.5
v113l-89 -15q-53 -9 -78.5 -31.5t-25.5 -59.5q0 -36 22 -57t60 -21q37 0 67 19.5zM223 599q-15 5 -30.5 9.5t-30.5 4.5q-35 0 -71 -21v60q37 22 72 22q15 0 30.5 -4.5t30.5 -9.5q40 -14 65 -14q32 0 62 15v-61q-30 -15 -62 -15q-26 0 -66 14z" />
    <glyph glyph-name="adieresis" unicode="&#xe4;" horiz-adv-x="462" 
d="M457 63v-63h-45q-69 0 -93 47q-43 -58 -129 -58q-66 0 -104.5 36.5t-38.5 100.5q0 62 38 97.5t118 48.5l104 17v53q0 98 -93 98q-47 0 -72 -25.5t-25 -73.5v-10h-68v10q0 79 42 121.5t121 42.5q80 0 121.5 -42t41.5 -124v-221q0 -55 50 -55h32zM263 68.5q30 19.5 44 51.5
v113l-89 -15q-53 -9 -78.5 -31.5t-25.5 -59.5q0 -36 22 -57t60 -21q37 0 67 19.5zM102.5 596.5q-12.5 12.5 -12.5 32.5t12.5 32.5t31.5 12.5q20 0 32.5 -12t12.5 -33t-12.5 -33t-32.5 -12q-19 0 -31.5 12.5zM275 596.5q-13 12.5 -13 32.5t13 32.5t32 12.5q20 0 32.5 -12.5
t12.5 -32.5t-12.5 -32.5t-32.5 -12.5q-19 0 -32 12.5z" />
    <glyph glyph-name="aring" unicode="&#xe5;" horiz-adv-x="462" 
d="M457 63v-63h-45q-69 0 -93 47q-43 -58 -129 -58q-66 0 -104.5 36.5t-38.5 100.5q0 62 38 97.5t118 48.5l104 17v53q0 98 -93 98q-47 0 -72 -25.5t-25 -73.5v-10h-68v10q0 79 42 121.5t121 42.5q80 0 121.5 -42t41.5 -124v-221q0 -55 50 -55h32zM263 68.5q30 19.5 44 51.5
v113l-89 -15q-53 -9 -78.5 -31.5t-25.5 -59.5q0 -36 22 -57t60 -21q37 0 67 19.5zM144 571.5q-30 28.5 -30 74.5t30 75.5t77 29.5q48 0 77.5 -29t29.5 -76q0 -46 -29.5 -74.5t-77.5 -28.5q-47 0 -77 28.5zM262 605.5q15 15.5 15 40.5t-15 40.5t-40 15.5q-24 0 -40.5 -15.5
t-16.5 -40.5t16 -40.5t41 -15.5t40 15.5z" />
    <glyph glyph-name="ae" unicode="&#xe6;" horiz-adv-x="695" 
d="M379 231v-81q0 -44 27 -70t72 -26q43 0 68 27t25 74h68q-1 -79 -43.5 -122.5t-117.5 -43.5q-49 0 -86 17t-59 48q-22 -31 -57 -48t-80 -17q-71 0 -110 35.5t-39 99.5q0 61 37.5 96t118.5 48l101 16v61q0 46 -23.5 70.5t-68.5 24.5q-46 0 -70.5 -25.5t-24.5 -73.5v-10h-68
v10q0 80 41 122t118 42q49 0 83.5 -17.5t53.5 -51.5q21 33 56.5 51t80.5 18q70 0 113.5 -45t43.5 -117v-112h-260zM405.5 413q-26.5 -27 -26.5 -72v-53h192v53q0 44 -26 71.5t-68 27.5q-45 0 -71.5 -27zM265.5 68.5q27.5 19.5 40.5 54.5q-2 20 -2 31v73l-87 -14
q-53 -8 -78 -29t-25 -58t22.5 -57t63.5 -20q38 0 65.5 19.5z" />
    <glyph glyph-name="ccedilla" unicode="&#xe7;" horiz-adv-x="442" 
d="M100.5 31.5q-44.5 42.5 -44.5 117.5v194q0 76 44 119t123 43q78 0 122 -43t44 -119v-39h-69v36q0 46 -26 73t-71 27t-71.5 -27t-26.5 -73v-188q0 -44 27 -71t71 -27q45 0 71 26.5t26 71.5v35h69v-38q0 -74 -44 -117t-122 -43t-122.5 42.5zM254 1l-42 -171h-71l45 182z
" />
    <glyph glyph-name="egrave" unicode="&#xe8;" 
d="M124 224v-76q0 -44 27 -69.5t72 -25.5q46 0 72.5 26.5t26.5 75.5h68q-1 -80 -45.5 -123t-121.5 -43q-78 0 -122.5 42.5t-44.5 117.5v194q0 76 44.5 119t122.5 43t122.5 -43t44.5 -119v-119h-266zM151.5 414q-27.5 -26 -27.5 -70v-62h198v62q0 45 -27 70.5t-72 25.5
q-44 0 -71.5 -26zM93 693l260 -66v-62l-260 66v62z" />
    <glyph glyph-name="eacute" unicode="&#xe9;" 
d="M124 224v-76q0 -44 27 -69.5t72 -25.5q46 0 72.5 26.5t26.5 75.5h68q-1 -80 -45.5 -123t-121.5 -43q-78 0 -122.5 42.5t-44.5 117.5v194q0 76 44.5 119t122.5 43t122.5 -43t44.5 -119v-119h-266zM151.5 414q-27.5 -26 -27.5 -70v-62h198v62q0 45 -27 70.5t-72 25.5
q-44 0 -71.5 -26zM353 693v-62l-260 -66v62z" />
    <glyph glyph-name="ecircumflex" unicode="&#xea;" 
d="M124 224v-76q0 -44 27 -69.5t72 -25.5q46 0 72.5 26.5t26.5 75.5h68q-1 -80 -45.5 -123t-121.5 -43q-78 0 -122.5 42.5t-44.5 117.5v194q0 76 44.5 119t122.5 43t122.5 -43t44.5 -119v-119h-266zM151.5 414q-27.5 -26 -27.5 -70v-62h198v62q0 45 -27 70.5t-72 25.5
q-44 0 -71.5 -26zM222 694l131 -63v-65l-131 62l-129 -62v65z" />
    <glyph glyph-name="edieresis" unicode="&#xeb;" 
d="M124 224v-76q0 -44 27 -69.5t72 -25.5q46 0 72.5 26.5t26.5 75.5h68q-1 -80 -45.5 -123t-121.5 -43q-78 0 -122.5 42.5t-44.5 117.5v194q0 76 44.5 119t122.5 43t122.5 -43t44.5 -119v-119h-266zM151.5 414q-27.5 -26 -27.5 -70v-62h198v62q0 45 -27 70.5t-72 25.5
q-44 0 -71.5 -26zM104.5 596.5q-12.5 12.5 -12.5 32.5t12.5 32.5t31.5 12.5q20 0 32.5 -12t12.5 -33t-12.5 -33t-32.5 -12q-19 0 -31.5 12.5zM277 596.5q-13 12.5 -13 32.5t13 32.5t32 12.5q20 0 32.5 -12.5t12.5 -32.5t-12.5 -32.5t-32.5 -12.5q-19 0 -32 12.5z" />
    <glyph glyph-name="igrave" unicode="&#xec;" horiz-adv-x="210" 
d="M139 494v-494h-68v494h68zM1 683l208 -46v-62l-208 46v62z" />
    <glyph glyph-name="iacute" unicode="&#xed;" horiz-adv-x="210" 
d="M139 494v-494h-68v494h68zM209 683v-62l-208 -46v62z" />
    <glyph glyph-name="icircumflex" unicode="&#xee;" horiz-adv-x="210" 
d="M139 494v-494h-68v494h68zM104 692l105 -51v-65l-105 51l-103 -51v65z" />
    <glyph glyph-name="idieresis" unicode="&#xef;" horiz-adv-x="210" 
d="M139 494v-494h-68v494h68zM-5.5 597q-12.5 13 -12.5 32q0 20 12.5 32.5t32.5 12.5t32 -12.5t12 -32.5t-12 -32.5t-32 -12.5t-32.5 13zM151 597q-13 13 -13 32q0 20 12.5 32.5t32.5 12.5t33 -12.5t13 -32.5t-13 -32.5t-33 -12.5q-19 0 -32 13z" />
    <glyph glyph-name="eth" unicode="&#xf0;" horiz-adv-x="450" 
d="M396 620l-98 -18q51 -51 72 -109.5t21 -146.5v-193q0 -77 -44 -120.5t-122 -43.5q-80 0 -124.5 43.5t-44.5 120.5v152q0 74 41.5 117.5t112.5 43.5q64 0 110 -46q-7 51 -29 89.5t-65 75.5l-160 -27v59l103 18l-63 54v11h79l57 -48l154 27v-59zM296.5 80q26.5 27 26.5 72
v189q-15 29 -41.5 45t-58.5 16q-45 0 -71.5 -27.5t-26.5 -74.5v-148q0 -46 26.5 -72.5t72.5 -26.5t72.5 27z" />
    <glyph glyph-name="ntilde" unicode="&#xf1;" horiz-adv-x="459" 
d="M358.5 464.5q38.5 -40.5 38.5 -115.5v-349h-69v338q0 51 -23 76.5t-72 25.5q-30 0 -56.5 -15.5t-41.5 -41.5v-383h-69v494h60l4 -43q21 26 51.5 40t66.5 14q72 0 110.5 -40.5zM235 599q-15 5 -30.5 9.5t-30.5 4.5q-35 0 -71 -21v60q37 22 72 22q15 0 30.5 -4.5t30.5 -9.5
q40 -14 65 -14q32 0 62 15v-61q-30 -15 -62 -15q-26 0 -66 14z" />
    <glyph glyph-name="ograve" unicode="&#xf2;" 
d="M101.5 30.5q-45.5 41.5 -45.5 118.5v194q0 78 45.5 120t121.5 42t121.5 -42t45.5 -120v-194q0 -77 -45.5 -118.5t-121.5 -41.5t-121.5 41.5zM294 80q27 26 27 72v188q0 48 -27 74t-71 26t-71 -26t-27 -74v-188q0 -46 27 -72t71 -26t71 26zM93 693l260 -66v-62l-260 66v62
z" />
    <glyph glyph-name="oacute" unicode="&#xf3;" 
d="M101.5 30.5q-45.5 41.5 -45.5 118.5v194q0 78 45.5 120t121.5 42t121.5 -42t45.5 -120v-194q0 -77 -45.5 -118.5t-121.5 -41.5t-121.5 41.5zM294 80q27 26 27 72v188q0 48 -27 74t-71 26t-71 -26t-27 -74v-188q0 -46 27 -72t71 -26t71 26zM353 693v-62l-260 -66v62z" />
    <glyph glyph-name="ocircumflex" unicode="&#xf4;" 
d="M101.5 30.5q-45.5 41.5 -45.5 118.5v194q0 78 45.5 120t121.5 42t121.5 -42t45.5 -120v-194q0 -77 -45.5 -118.5t-121.5 -41.5t-121.5 41.5zM294 80q27 26 27 72v188q0 48 -27 74t-71 26t-71 -26t-27 -74v-188q0 -46 27 -72t71 -26t71 26zM222 694l131 -63v-65l-131 62
l-129 -62v65z" />
    <glyph glyph-name="otilde" unicode="&#xf5;" 
d="M101.5 30.5q-45.5 41.5 -45.5 118.5v194q0 78 45.5 120t121.5 42t121.5 -42t45.5 -120v-194q0 -77 -45.5 -118.5t-121.5 -41.5t-121.5 41.5zM294 80q27 26 27 72v188q0 48 -27 74t-71 26t-71 -26t-27 -74v-188q0 -46 27 -72t71 -26t71 26zM225 599q-15 5 -30.5 9.5
t-30.5 4.5q-35 0 -71 -21v60q37 22 72 22q15 0 30.5 -4.5t30.5 -9.5q40 -14 65 -14q32 0 62 15v-61q-30 -15 -62 -15q-26 0 -66 14z" />
    <glyph glyph-name="odieresis" unicode="&#xf6;" 
d="M101.5 30.5q-45.5 41.5 -45.5 118.5v194q0 78 45.5 120t121.5 42t121.5 -42t45.5 -120v-194q0 -77 -45.5 -118.5t-121.5 -41.5t-121.5 41.5zM294 80q27 26 27 72v188q0 48 -27 74t-71 26t-71 -26t-27 -74v-188q0 -46 27 -72t71 -26t71 26zM104.5 596.5
q-12.5 12.5 -12.5 32.5t12.5 32.5t31.5 12.5q20 0 32.5 -12t12.5 -33t-12.5 -33t-32.5 -12q-19 0 -31.5 12.5zM277 596.5q-13 12.5 -13 32.5t13 32.5t32 12.5q20 0 32.5 -12.5t12.5 -32.5t-12.5 -32.5t-32.5 -12.5q-19 0 -32 12.5z" />
    <glyph glyph-name="divide" unicode="&#xf7;" horiz-adv-x="490" 
d="M211 482.5q-14 13.5 -14 34.5t14 34.5t34 13.5q21 0 34.5 -13t13.5 -35q0 -21 -13.5 -34.5t-34.5 -13.5q-20 0 -34 13.5zM447 361v-66h-405v66h405zM211 105q-14 14 -14 34q0 21 14 34.5t34 13.5q21 0 34.5 -13t13.5 -35q0 -21 -13.5 -34.5t-34.5 -13.5q-20 0 -34 14z
" />
    <glyph glyph-name="oslash" unicode="&#xf8;" 
d="M391 343v-194q0 -75 -44.5 -117.5t-123.5 -42.5q-34 0 -63 9l-19 -50h-62v11l27 68q-50 42 -50 122v194q0 76 44 119t123 43q36 0 65 -9l18 49h62v-11l-26 -68q49 -43 49 -123zM120 152q0 -33 14 -56l134 340q-21 8 -44 8q-48 0 -76 -28t-28 -76v-188zM326 340
q0 33 -14 58l-132 -340q21 -8 44 -8q47 0 74.5 28t27.5 74v188z" />
    <glyph glyph-name="ugrave" unicode="&#xf9;" horiz-adv-x="459" 
d="M393 494v-494h-60l-4 42q-21 -25 -51.5 -39t-66.5 -14q-72 0 -110.5 40.5t-38.5 114.5v350h69v-339q0 -50 23 -75.5t72 -25.5q30 0 56.5 15t41.5 41v384h69zM98 692l260 -66v-62l-260 66v62z" />
    <glyph glyph-name="uacute" unicode="&#xfa;" horiz-adv-x="459" 
d="M393 494v-494h-60l-4 42q-21 -25 -51.5 -39t-66.5 -14q-72 0 -110.5 40.5t-38.5 114.5v350h69v-339q0 -50 23 -75.5t72 -25.5q30 0 56.5 15t41.5 41v384h69zM358 692v-62l-260 -66v62z" />
    <glyph glyph-name="ucircumflex" unicode="&#xfb;" horiz-adv-x="459" 
d="M393 494v-494h-60l-4 42q-21 -25 -51.5 -39t-66.5 -14q-72 0 -110.5 40.5t-38.5 114.5v350h69v-339q0 -50 23 -75.5t72 -25.5q30 0 56.5 15t41.5 41v384h69zM227 693l131 -63v-65l-131 62l-129 -62v65z" />
    <glyph glyph-name="udieresis" unicode="&#xfc;" horiz-adv-x="459" 
d="M393 494v-494h-60l-4 42q-21 -25 -51.5 -39t-66.5 -14q-72 0 -110.5 40.5t-38.5 114.5v350h69v-339q0 -50 23 -75.5t72 -25.5q30 0 56.5 15t41.5 41v384h69zM109.5 595.5q-12.5 12.5 -12.5 32.5t12.5 32.5t31.5 12.5q20 0 32.5 -12t12.5 -33t-12.5 -33t-32.5 -12
q-19 0 -31.5 12.5zM282 595.5q-13 12.5 -13 32.5t13 32.5t32 12.5q20 0 32.5 -12.5t12.5 -32.5t-12.5 -32.5t-32.5 -12.5q-19 0 -32 12.5z" />
    <glyph glyph-name="yacute" unicode="&#xfd;" horiz-adv-x="464" 
d="M435 494v-11l-185 -550q-19 -58 -49 -80.5t-86 -22.5h-49v64h43q33 0 48.5 12t26.5 48l15 49l-170 480v11h72l134 -395l128 395h72zM362 693v-62l-260 -66v62z" />
    <glyph glyph-name="thorn" unicode="&#xfe;" horiz-adv-x="454" 
d="M357.5 463q41.5 -42 41.5 -110v-213q0 -68 -41.5 -109.5t-110.5 -41.5q-67 0 -112 43v-202h-69v866h69v-238q20 23 49.5 35t64.5 12q67 0 108.5 -42zM330 338q0 47 -26.5 74.5t-71.5 27.5q-30 0 -56 -15.5t-41 -42.5v-271q15 -26 41 -41.5t56 -15.5q45 0 71.5 27.5
t26.5 74.5v182z" />
    <glyph glyph-name="ydieresis" unicode="&#xff;" horiz-adv-x="464" 
d="M435 494v-11l-185 -550q-19 -58 -49 -80.5t-86 -22.5h-49v64h43q33 0 48.5 12t26.5 48l15 49l-170 480v11h72l134 -395l128 395h72zM113.5 596.5q-12.5 12.5 -12.5 32.5t12.5 32.5t31.5 12.5q20 0 32.5 -12t12.5 -33t-12.5 -33t-32.5 -12q-19 0 -31.5 12.5zM286 596.5
q-13 12.5 -13 32.5t13 32.5t32 12.5q20 0 32.5 -12.5t12.5 -32.5t-12.5 -32.5t-32.5 -12.5q-19 0 -32 12.5z" />
    <glyph glyph-name="Amacron" unicode="&#x100;" horiz-adv-x="499" 
d="M465 11v-11h-72l-42 163h-202l-42 -163h-72v11l174 645h83zM334 228l-84 327l-84 -327h168zM380 822v-61h-260v61h260z" />
    <glyph glyph-name="amacron" unicode="&#x101;" horiz-adv-x="462" 
d="M457 63v-63h-45q-69 0 -93 47q-43 -58 -129 -58q-66 0 -104.5 36.5t-38.5 100.5q0 62 38 97.5t118 48.5l104 17v53q0 98 -93 98q-47 0 -72 -25.5t-25 -73.5v-10h-68v10q0 79 42 121.5t121 42.5q80 0 121.5 -42t41.5 -124v-221q0 -55 50 -55h32zM263 68.5q30 19.5 44 51.5
v113l-89 -15q-53 -9 -78.5 -31.5t-25.5 -59.5q0 -36 22 -57t60 -21q37 0 67 19.5zM351 660v-61h-260v61h260z" />
    <glyph glyph-name="Abreve" unicode="&#x102;" horiz-adv-x="499" 
d="M465 11v-11h-72l-42 163h-202l-42 -163h-72v11l174 645h83zM334 228l-84 327l-84 -327h168zM120 781v63q26 -20 59.5 -31.5t72.5 -11.5q76 0 128 43v-63q-24 -20 -57 -31t-71 -11q-78 0 -132 42z" />
    <glyph glyph-name="abreve" unicode="&#x103;" horiz-adv-x="462" 
d="M457 63v-63h-45q-69 0 -93 47q-43 -58 -129 -58q-66 0 -104.5 36.5t-38.5 100.5q0 62 38 97.5t118 48.5l104 17v53q0 98 -93 98q-47 0 -72 -25.5t-25 -73.5v-10h-68v10q0 79 42 121.5t121 42.5q80 0 121.5 -42t41.5 -124v-221q0 -55 50 -55h32zM263 68.5q30 19.5 44 51.5
v113l-89 -15q-53 -9 -78.5 -31.5t-25.5 -59.5q0 -36 22 -57t60 -21q37 0 67 19.5zM91 619v63q26 -20 59.5 -31.5t72.5 -11.5q76 0 128 43v-63q-24 -20 -57 -31t-71 -11q-78 0 -132 42z" />
    <glyph glyph-name="Aogonek" unicode="&#x104;" horiz-adv-x="499" 
d="M465 11v-11h-72l-42 163h-202l-42 -163h-72v11l174 645h83zM334 228l-84 327l-84 -327h168zM346 -151q-22 19 -22 48q0 21 10.5 38.5t35.5 41.5l71 67l24 -44l-58 -57q-9 -9 -13 -16t-4 -16q0 -22 30 -22h45v-59h-62q-35 0 -57 19z" />
    <glyph glyph-name="aogonek" unicode="&#x105;" horiz-adv-x="462" 
d="M457 63v-63h-45q-69 0 -93 47q-43 -58 -129 -58q-66 0 -104.5 36.5t-38.5 100.5q0 62 38 97.5t118 48.5l104 17v53q0 98 -93 98q-47 0 -72 -25.5t-25 -73.5v-10h-68v10q0 79 42 121.5t121 42.5q80 0 121.5 -42t41.5 -124v-221q0 -55 50 -55h32zM263 68.5q30 19.5 44 51.5
v113l-89 -15q-53 -9 -78.5 -31.5t-25.5 -59.5q0 -36 22 -57t60 -21q37 0 67 19.5zM338 -151q-22 19 -22 48q0 21 10.5 38.5t35.5 41.5l71 67l24 -44l-58 -57q-9 -9 -13 -16t-4 -16q0 -22 30 -22h45v-59h-62q-35 0 -57 19z" />
    <glyph glyph-name="Cacute" unicode="&#x106;" horiz-adv-x="502" 
d="M118 38q-50 49 -50 136v307q0 87 50.5 136.5t138.5 49.5q93 0 141.5 -51t48.5 -149v-60h-72v60q0 67 -30 101t-88 34q-57 0 -87.5 -33t-30.5 -93v-297q0 -60 30.5 -92.5t87.5 -32.5q58 0 88 33.5t30 97.5v63h72v-63q0 -96 -49 -146t-141 -50q-89 0 -139 49zM389 855v-62
l-260 -66v62z" />
    <glyph glyph-name="cacute" unicode="&#x107;" horiz-adv-x="442" 
d="M100.5 31.5q-44.5 42.5 -44.5 117.5v194q0 76 44 119t123 43q78 0 122 -43t44 -119v-39h-69v36q0 46 -26 73t-71 27t-71.5 -27t-26.5 -73v-188q0 -44 27 -71t71 -27q45 0 71 26.5t26 71.5v35h69v-38q0 -74 -44 -117t-122 -43t-122.5 42.5zM348 693v-62l-260 -66v62z" />
    <glyph glyph-name="Ccircumflex" unicode="&#x108;" horiz-adv-x="502" 
d="M118 38q-50 49 -50 136v307q0 87 50.5 136.5t138.5 49.5q93 0 141.5 -51t48.5 -149v-60h-72v60q0 67 -30 101t-88 34q-57 0 -87.5 -33t-30.5 -93v-297q0 -60 30.5 -92.5t87.5 -32.5q58 0 88 33.5t30 97.5v63h72v-63q0 -96 -49 -146t-141 -50q-89 0 -139 49zM258 856
l131 -63v-65l-131 62l-129 -62v65z" />
    <glyph glyph-name="ccircumflex" unicode="&#x109;" horiz-adv-x="442" 
d="M100.5 31.5q-44.5 42.5 -44.5 117.5v194q0 76 44 119t123 43q78 0 122 -43t44 -119v-39h-69v36q0 46 -26 73t-71 27t-71.5 -27t-26.5 -73v-188q0 -44 27 -71t71 -27q45 0 71 26.5t26 71.5v35h69v-38q0 -74 -44 -117t-122 -43t-122.5 42.5zM217 694l131 -63v-65l-131 62
l-129 -62v65z" />
    <glyph glyph-name="Cdotaccent" unicode="&#x10a;" horiz-adv-x="502" 
d="M118 38q-50 49 -50 136v307q0 87 50.5 136.5t138.5 49.5q93 0 141.5 -51t48.5 -149v-60h-72v60q0 67 -30 101t-88 34q-57 0 -87.5 -33t-30.5 -93v-297q0 -60 30.5 -92.5t87.5 -32.5q58 0 88 33.5t30 97.5v63h72v-63q0 -96 -49 -146t-141 -50q-89 0 -139 49zM223.5 755
q-14.5 14 -14.5 36t14.5 36t35.5 14q22 0 36 -13.5t14 -36.5q0 -22 -14 -36t-36 -14q-21 0 -35.5 14z" />
    <glyph glyph-name="cdotaccent" unicode="&#x10b;" horiz-adv-x="442" 
d="M100.5 31.5q-44.5 42.5 -44.5 117.5v194q0 76 44 119t123 43q78 0 122 -43t44 -119v-39h-69v36q0 46 -26 73t-71 27t-71.5 -27t-26.5 -73v-188q0 -44 27 -71t71 -27q45 0 71 26.5t26 71.5v35h69v-38q0 -74 -44 -117t-122 -43t-122.5 42.5zM182.5 593q-14.5 14 -14.5 36
t14.5 36t35.5 14q22 0 36 -13.5t14 -36.5q0 -22 -14 -36t-36 -14q-21 0 -35.5 14z" />
    <glyph glyph-name="Ccaron" unicode="&#x10c;" horiz-adv-x="502" 
d="M118 38q-50 49 -50 136v307q0 87 50.5 136.5t138.5 49.5q93 0 141.5 -51t48.5 -149v-60h-72v60q0 67 -30 101t-88 34q-57 0 -87.5 -33t-30.5 -93v-297q0 -60 30.5 -92.5t87.5 -32.5q58 0 88 33.5t30 97.5v63h72v-63q0 -96 -49 -146t-141 -50q-89 0 -139 49zM129 855
l129 -62l131 62v-65l-131 -63l-129 63v65z" />
    <glyph glyph-name="ccaron" unicode="&#x10d;" horiz-adv-x="442" 
d="M100.5 31.5q-44.5 42.5 -44.5 117.5v194q0 76 44 119t123 43q78 0 122 -43t44 -119v-39h-69v36q0 46 -26 73t-71 27t-71.5 -27t-26.5 -73v-188q0 -44 27 -71t71 -27q45 0 71 26.5t26 71.5v35h69v-38q0 -74 -44 -117t-122 -43t-122.5 42.5zM88 693l129 -62l131 62v-65
l-131 -63l-129 63v65z" />
    <glyph glyph-name="Dcaron" unicode="&#x10e;" horiz-adv-x="497" 
d="M238 656q90 0 140.5 -49.5t50.5 -139.5v-279q0 -89 -50.5 -138.5t-140.5 -49.5h-169v656h169zM327.5 98q30.5 33 30.5 94v272q0 61 -30.5 94t-87.5 33h-100v-526h100q57 0 87.5 33zM90 855l129 -62l131 62v-65l-131 -63l-129 63v65z" />
    <glyph glyph-name="dcaron" unicode="&#x10f;" horiz-adv-x="624" 
d="M390 696v-696h-61l-3 36q-44 -47 -116 -47q-69 0 -111.5 42.5t-42.5 112.5v205q0 71 42.5 113.5t110.5 42.5q71 0 112 -47v238h69zM280 69.5q26 15.5 41 42.5v269q-15 27 -41 43t-57 16q-45 0 -71.5 -27.5t-26.5 -74.5v-182q0 -47 26.5 -74.5t71.5 -27.5q31 0 57 15.5z
M601 696l-55 -184h-59l36 184h78z" />
    <glyph glyph-name="Dcroat" unicode="&#x110;" horiz-adv-x="510" 
d="M391.5 606.5q50.5 -49.5 50.5 -139.5v-279q0 -89 -50.5 -138.5t-140.5 -49.5h-169v296h-68v64h68v296h169q90 0 140.5 -49.5zM371 464q0 61 -30.5 94t-87.5 33h-100v-231h115v-64h-115v-231h100q57 0 87.5 33t30.5 94v272z" />
    <glyph glyph-name="dcroat" unicode="&#x111;" horiz-adv-x="464" 
d="M457 581h-67v-581h-61l-3 37q-43 -48 -116 -48q-69 0 -111.5 42.5t-42.5 112.5v198q0 69 42.5 112t110.5 43q70 0 112 -47v131h-127v60h127v55h69v-55h67v-60zM280 70q26 16 41 43v261q-15 27 -41 42.5t-58 15.5q-44 0 -70.5 -27.5t-26.5 -74.5v-174q0 -46 27 -74t71 -28
q31 0 57 16z" />
    <glyph glyph-name="Emacron" unicode="&#x112;" horiz-adv-x="429" 
d="M398 656v-65h-258v-231h244v-65h-244v-230h258v-65h-329v656h329zM364 822v-61h-260v61h260z" />
    <glyph glyph-name="emacron" unicode="&#x113;" 
d="M124 224v-76q0 -44 27 -69.5t72 -25.5q46 0 72.5 26.5t26.5 75.5h68q-1 -80 -45.5 -123t-121.5 -43q-78 0 -122.5 42.5t-44.5 117.5v194q0 76 44.5 119t122.5 43t122.5 -43t44.5 -119v-119h-266zM151.5 414q-27.5 -26 -27.5 -70v-62h198v62q0 45 -27 70.5t-72 25.5
q-44 0 -71.5 -26zM353 660v-61h-260v61h260z" />
    <glyph glyph-name="Ebreve" unicode="&#x114;" horiz-adv-x="429" 
d="M398 656v-65h-258v-231h244v-65h-244v-230h258v-65h-329v656h329zM104 781v63q26 -20 59.5 -31.5t72.5 -11.5q76 0 128 43v-63q-24 -20 -57 -31t-71 -11q-78 0 -132 42z" />
    <glyph glyph-name="ebreve" unicode="&#x115;" 
d="M124 224v-76q0 -44 27 -69.5t72 -25.5q46 0 72.5 26.5t26.5 75.5h68q-1 -80 -45.5 -123t-121.5 -43q-78 0 -122.5 42.5t-44.5 117.5v194q0 76 44.5 119t122.5 43t122.5 -43t44.5 -119v-119h-266zM151.5 414q-27.5 -26 -27.5 -70v-62h198v62q0 45 -27 70.5t-72 25.5
q-44 0 -71.5 -26zM93 619v63q26 -20 59.5 -31.5t72.5 -11.5q76 0 128 43v-63q-24 -20 -57 -31t-71 -11q-78 0 -132 42z" />
    <glyph glyph-name="Edotaccent" unicode="&#x116;" horiz-adv-x="429" 
d="M398 656v-65h-258v-231h244v-65h-244v-230h258v-65h-329v656h329zM198.5 755q-14.5 14 -14.5 36t14.5 36t35.5 14q22 0 36 -13.5t14 -36.5q0 -22 -14 -36t-36 -14q-21 0 -35.5 14z" />
    <glyph glyph-name="edotaccent" unicode="&#x117;" 
d="M124 224v-76q0 -44 27 -69.5t72 -25.5q46 0 72.5 26.5t26.5 75.5h68q-1 -80 -45.5 -123t-121.5 -43q-78 0 -122.5 42.5t-44.5 117.5v194q0 76 44.5 119t122.5 43t122.5 -43t44.5 -119v-119h-266zM151.5 414q-27.5 -26 -27.5 -70v-62h198v62q0 45 -27 70.5t-72 25.5
q-44 0 -71.5 -26zM187.5 593q-14.5 14 -14.5 36t14.5 36t35.5 14q22 0 36 -13.5t14 -36.5q0 -22 -14 -36t-36 -14q-21 0 -35.5 14z" />
    <glyph glyph-name="Eogonek" unicode="&#x118;" horiz-adv-x="429" 
d="M398 656v-65h-258v-231h244v-65h-244v-230h258v-65h-329v656h329zM280 -151q-22 19 -22 48q0 21 10.5 38.5t35.5 41.5l71 67l24 -44l-58 -57q-9 -9 -13 -16t-4 -16q0 -22 30 -22h45v-59h-62q-35 0 -57 19z" />
    <glyph glyph-name="eogonek" unicode="&#x119;" 
d="M124 224v-76q0 -44 27 -69.5t72 -25.5q46 0 72.5 26.5t26.5 75.5h68q-1 -80 -45.5 -123t-121.5 -43q-78 0 -122.5 42.5t-44.5 117.5v194q0 76 44.5 119t122.5 43t122.5 -43t44.5 -119v-119h-266zM151.5 414q-27.5 -26 -27.5 -70v-62h198v62q0 45 -27 70.5t-72 25.5
q-44 0 -71.5 -26zM213 -150.5q-22 19.5 -22 51.5q0 19 10 37t33 43l72 80l51 -17l-79 -92q-12 -14 -16.5 -22.5t-4.5 -16.5q0 -11 8 -17.5t24 -6.5h43v-59h-61q-36 0 -58 19.5z" />
    <glyph glyph-name="Ecaron" unicode="&#x11a;" horiz-adv-x="429" 
d="M398 656v-65h-258v-231h244v-65h-244v-230h258v-65h-329v656h329zM104 855l129 -62l131 62v-65l-131 -63l-129 63v65z" />
    <glyph glyph-name="ecaron" unicode="&#x11b;" 
d="M124 224v-76q0 -44 27 -69.5t72 -25.5q46 0 72.5 26.5t26.5 75.5h68q-1 -80 -45.5 -123t-121.5 -43q-78 0 -122.5 42.5t-44.5 117.5v194q0 76 44.5 119t122.5 43t122.5 -43t44.5 -119v-119h-266zM151.5 414q-27.5 -26 -27.5 -70v-62h198v62q0 45 -27 70.5t-72 25.5
q-44 0 -71.5 -26zM93 693l129 -62l131 62v-65l-131 -63l-129 63v65z" />
    <glyph glyph-name="Gcircumflex" unicode="&#x11c;" horiz-adv-x="521" 
d="M377 443v33q0 59 -31 92.5t-86 33.5q-57 0 -89 -33t-32 -92v-298q0 -59 31.5 -91.5t88.5 -32.5q39 0 69 16.5t49 47.5v157h-144v64h214v-340h-59l-4 43q-48 -54 -128 -54q-86 0 -137 50t-51 135v307q0 87 51.5 136.5t140.5 49.5t138.5 -50t49.5 -141v-33h-71zM258 856
l131 -63v-65l-131 62l-129 -62v65z" />
    <glyph glyph-name="gcircumflex" unicode="&#x11d;" horiz-adv-x="454" 
d="M390 494v-514q0 -77 -44 -119t-125 -42q-82 0 -125 42t-43 121v10h69v-10q0 -98 100 -98q47 0 73 25t26 71v94q-21 -23 -50.5 -35.5t-62.5 -12.5q-70 0 -111.5 43t-41.5 114v170q0 69 42 110.5t112 41.5q77 0 117 -54l3 43h61zM280 106.5q26 16.5 41 44.5v228
q-15 28 -41 44.5t-57 16.5q-45 0 -72 -28.5t-27 -75.5v-142q0 -47 27 -75.5t72 -28.5q31 0 57 16.5zM219 694l131 -63v-65l-131 62l-129 -62v65z" />
    <glyph glyph-name="Gbreve" unicode="&#x11e;" horiz-adv-x="521" 
d="M377 443v33q0 59 -31 92.5t-86 33.5q-57 0 -89 -33t-32 -92v-298q0 -59 31.5 -91.5t88.5 -32.5q39 0 69 16.5t49 47.5v157h-144v64h214v-340h-59l-4 43q-48 -54 -128 -54q-86 0 -137 50t-51 135v307q0 87 51.5 136.5t140.5 49.5t138.5 -50t49.5 -141v-33h-71zM129 781v63
q26 -20 59.5 -31.5t72.5 -11.5q76 0 128 43v-63q-24 -20 -57 -31t-71 -11q-78 0 -132 42z" />
    <glyph glyph-name="gbreve" unicode="&#x11f;" horiz-adv-x="454" 
d="M390 494v-514q0 -77 -44 -119t-125 -42q-82 0 -125 42t-43 121v10h69v-10q0 -98 100 -98q47 0 73 25t26 71v94q-21 -23 -50.5 -35.5t-62.5 -12.5q-70 0 -111.5 43t-41.5 114v170q0 69 42 110.5t112 41.5q77 0 117 -54l3 43h61zM280 106.5q26 16.5 41 44.5v228
q-15 28 -41 44.5t-57 16.5q-45 0 -72 -28.5t-27 -75.5v-142q0 -47 27 -75.5t72 -28.5q31 0 57 16.5zM90 619v63q26 -20 59.5 -31.5t72.5 -11.5q76 0 128 43v-63q-24 -20 -57 -31t-71 -11q-78 0 -132 42z" />
    <glyph glyph-name="Gdotaccent" unicode="&#x120;" horiz-adv-x="521" 
d="M377 443v33q0 59 -31 92.5t-86 33.5q-57 0 -89 -33t-32 -92v-298q0 -59 31.5 -91.5t88.5 -32.5q39 0 69 16.5t49 47.5v157h-144v64h214v-340h-59l-4 43q-48 -54 -128 -54q-86 0 -137 50t-51 135v307q0 87 51.5 136.5t140.5 49.5t138.5 -50t49.5 -141v-33h-71zM223.5 755
q-14.5 14 -14.5 36t14.5 36t35.5 14q22 0 36 -13.5t14 -36.5q0 -22 -14 -36t-36 -14q-21 0 -35.5 14z" />
    <glyph glyph-name="gdotaccent" unicode="&#x121;" horiz-adv-x="454" 
d="M390 494v-514q0 -77 -44 -119t-125 -42q-82 0 -125 42t-43 121v10h69v-10q0 -98 100 -98q47 0 73 25t26 71v94q-21 -23 -50.5 -35.5t-62.5 -12.5q-70 0 -111.5 43t-41.5 114v170q0 69 42 110.5t112 41.5q77 0 117 -54l3 43h61zM280 106.5q26 16.5 41 44.5v228
q-15 28 -41 44.5t-57 16.5q-45 0 -72 -28.5t-27 -75.5v-142q0 -47 27 -75.5t72 -28.5q31 0 57 16.5zM184.5 593q-14.5 14 -14.5 36t14.5 36t35.5 14q22 0 36 -13.5t14 -36.5q0 -22 -14 -36t-36 -14q-21 0 -35.5 14z" />
    <glyph glyph-name="uni0122" unicode="&#x122;" horiz-adv-x="521" 
d="M377 443v33q0 59 -31 92.5t-86 33.5q-57 0 -89 -33t-32 -92v-298q0 -59 31.5 -91.5t88.5 -32.5q39 0 69 16.5t49 47.5v157h-144v64h214v-340h-59l-4 43q-48 -54 -128 -54q-86 0 -137 50t-51 135v307q0 87 51.5 136.5t140.5 49.5t138.5 -50t49.5 -141v-33h-71zM293 -58
l-43 -146h-65l38 146h70z" />
    <glyph glyph-name="uni0123" unicode="&#x123;" horiz-adv-x="454" 
d="M390 494v-514q0 -77 -44 -119t-125 -42q-82 0 -125 42t-43 121v10h69v-10q0 -98 100 -98q47 0 73 25t26 71v94q-21 -23 -50.5 -35.5t-62.5 -12.5q-70 0 -111.5 43t-41.5 114v170q0 69 42 110.5t112 41.5q77 0 117 -54l3 43h61zM280 106.5q26 16.5 41 44.5v228
q-15 28 -41 44.5t-57 16.5q-45 0 -72 -28.5t-27 -75.5v-142q0 -47 27 -75.5t72 -28.5q31 0 57 16.5zM285 702l-38 -147h-72l44 147h66z" />
    <glyph glyph-name="Hcircumflex" unicode="&#x124;" horiz-adv-x="499" 
d="M140 656v-296h219v296h71v-656h-71v295h-219v-295h-71v656h71zM248 856l131 -63v-65l-131 62l-129 -62v65z" />
    <glyph glyph-name="hcircumflex" unicode="&#x125;" horiz-adv-x="459" 
d="M357.5 464.5q39.5 -40.5 39.5 -115.5v-349h-69v338q0 102 -95 102q-30 0 -56 -15.5t-42 -42.5v-382h-69v696h69v-239q21 23 50.5 35.5t62.5 12.5q70 0 109.5 -40.5zM99 866l131 -63v-65l-131 62l-129 -62v65z" />
    <glyph glyph-name="Hbar" unicode="&#x126;" horiz-adv-x="499" 
d="M476 451h-46v-451h-71v273h-220v-273h-70v451h-47v64h47v141h70v-141h220v141h71v-141h46v-64zM359 451h-220v-114h220v114z" />
    <glyph glyph-name="hbar" unicode="&#x127;" horiz-adv-x="469" 
d="M367.5 457q39.5 -40 39.5 -115v-342h-69v330q0 102 -95 102q-30 0 -56 -15.5t-42 -42.5v-374h-69v581h-68v60h68v55h69v-55h128v-60h-128v-132q21 23 50.5 35.5t62.5 12.5q70 0 109.5 -40z" />
    <glyph glyph-name="Itilde" unicode="&#x128;" horiz-adv-x="220" 
d="M146 656v-656h-72v656h72zM111 762q-4 1 -19 7t-29 6q-31 0 -57 -19v61q28 19 57 19q13 0 24.5 -3.5t27.5 -10.5q30 -14 50 -14q27 0 49 13v-61q-24 -13 -49 -13q-24 0 -54 15z" />
    <glyph glyph-name="itilde" unicode="&#x129;" horiz-adv-x="210" 
d="M139 494v-494h-68v494h68zM106 600q-4 1 -19 7t-29 6q-31 0 -57 -19v61q28 19 57 19q13 0 24.5 -3.5t27.5 -10.5q30 -14 50 -14q27 0 49 13v-61q-24 -13 -49 -13q-24 0 -54 15z" />
    <glyph glyph-name="Imacron" unicode="&#x12a;" horiz-adv-x="220" 
d="M146 656v-656h-72v656h72zM214 822v-61h-208v61h208z" />
    <glyph glyph-name="imacron" unicode="&#x12b;" horiz-adv-x="210" 
d="M139 494v-494h-68v494h68zM209 660v-61h-208v61h208z" />
    <glyph glyph-name="Ibreve" unicode="&#x12c;" horiz-adv-x="220" 
d="M146 656v-656h-72v656h72zM6 780v64q40 -43 106 -43q64 0 102 43v-64q-19 -19 -45.5 -29.5t-56.5 -10.5q-66 0 -106 40z" />
    <glyph glyph-name="ibreve" unicode="&#x12d;" horiz-adv-x="210" 
d="M139 494v-494h-68v494h68zM1 618v64q40 -43 106 -43q64 0 102 43v-64q-19 -19 -45.5 -29.5t-56.5 -10.5q-66 0 -106 40z" />
    <glyph glyph-name="Iogonek" unicode="&#x12e;" horiz-adv-x="220" 
d="M146 656v-656h-72v656h72zM27 -151q-22 19 -22 48q0 21 10.5 38.5t35.5 41.5l71 67l24 -44l-58 -57q-9 -9 -13 -16t-4 -16q0 -22 30 -22h45v-59h-62q-35 0 -57 19z" />
    <glyph glyph-name="iogonek" unicode="&#x12f;" horiz-adv-x="210" 
d="M139 494v-494h-68v494h68zM69.5 593q-14.5 14 -14.5 36t14.5 36t35.5 14q22 0 36 -13.5t14 -36.5q0 -22 -14 -36t-36 -14q-21 0 -35.5 14zM20 -151q-22 19 -22 48q0 21 10.5 38.5t35.5 41.5l71 67l24 -44l-58 -57q-9 -9 -13 -16t-4 -16q0 -22 30 -22h45v-59h-62
q-35 0 -57 19z" />
    <glyph glyph-name="Idotaccent" unicode="&#x130;" horiz-adv-x="220" 
d="M146 656v-656h-72v656h72zM74.5 755q-14.5 14 -14.5 36t14.5 36t35.5 14q22 0 36 -13.5t14 -36.5q0 -22 -14 -36t-36 -14q-21 0 -35.5 14z" />
    <glyph glyph-name="dotlessi" unicode="&#x131;" horiz-adv-x="210" 
d="M139 494v-494h-68v494h68z" />
    <glyph glyph-name="IJ" unicode="&#x132;" horiz-adv-x="568" 
d="M140 656v-656h-71v656h71zM326 65q49 0 75.5 27.5t26.5 77.5v421h-184v65h255v-491q0 -76 -46 -120.5t-127 -44.5h-82v65h82z" />
    <glyph glyph-name="ij" unicode="&#x133;" horiz-adv-x="420" 
d="M139 494v-494h-68v494h68zM69.5 593q-14.5 14 -14.5 36t14.5 36t35.5 14q22 0 36 -13.5t14 -36.5q0 -22 -14 -36t-36 -14q-21 0 -35.5 14zM209 -106q35 0 53.5 19t18.5 54v527h68v-532q0 -61 -35 -96.5t-96 -35.5h-62v64h53zM279.5 593q-14.5 14 -14.5 36t14.5 36
t35.5 14q22 0 36 -13.5t14 -36.5q0 -22 -14 -36t-36 -14q-21 0 -35.5 14z" />
    <glyph glyph-name="Jcircumflex" unicode="&#x134;" horiz-adv-x="459" 
d="M89.5 35q-45.5 46 -45.5 129v87h71v-87q0 -53 26.5 -81.5t75.5 -28.5t76 28t27 78v431h-210v65h280v-502q0 -77 -46.5 -121t-126.5 -44q-82 0 -127.5 46zM243 856l131 -63v-65l-131 62l-129 -62v65z" />
    <glyph glyph-name="jcircumflex" unicode="&#x135;" horiz-adv-x="210" 
d="M-1 -106q35 0 53.5 19t18.5 54v527h68v-532q0 -61 -35 -96.5t-96 -35.5h-62v64h53zM104 692l105 -51v-65l-105 51l-103 -51v65z" />
    <glyph glyph-name="uni0136" unicode="&#x136;" horiz-adv-x="496" 
d="M455 11v-11h-72l-168 303l-75 -110v-193h-71v656h71v-338l239 338h75v-11l-193 -280zM279 -58l-43 -146h-65l38 146h70z" />
    <glyph glyph-name="uni0137" unicode="&#x137;" 
d="M419 11v-11h-74l-136 230l-74 -93v-137h-69v696h69v-449l205 247h74v-11l-159 -199zM253 -58l-43 -146h-65l38 146h70z" />
    <glyph glyph-name="Lacute" unicode="&#x139;" horiz-adv-x="416" 
d="M140 656v-591h266v-65h-337v656h71zM233 855v-62l-260 -66v62z" />
    <glyph glyph-name="lacute" unicode="&#x13a;" horiz-adv-x="232" 
d="M71 108v588h68v-577q0 -29 11 -42.5t38 -13.5h39v-63h-49q-107 0 -107 108zM209 855v-62l-208 -46v62z" />
    <glyph glyph-name="uni013B" unicode="&#x13b;" horiz-adv-x="416" 
d="M140 656v-591h266v-65h-337v656h71zM271 -58l-43 -146h-65l38 146h70z" />
    <glyph glyph-name="uni013C" unicode="&#x13c;" horiz-adv-x="232" 
d="M71 108v588h68v-577q0 -29 11 -42.5t38 -13.5h39v-63h-49q-107 0 -107 108zM206 -58l-43 -146h-65l38 146h70z" />
    <glyph glyph-name="Lcaron" unicode="&#x13d;" horiz-adv-x="416" 
d="M140 656v-591h266v-65h-337v656h71zM375 656l-55 -184h-59l36 184h78z" />
    <glyph glyph-name="lcaron" unicode="&#x13e;" horiz-adv-x="382" 
d="M71 108v588h68v-577q0 -29 11 -42.5t38 -13.5h39v-63h-49q-107 0 -107 108zM354 696l-55 -184h-59l36 184h78z" />
    <glyph glyph-name="Ldot" unicode="&#x13f;" horiz-adv-x="416" 
d="M140 656v-591h266v-65h-337v656h71zM278 319.5q-14 13.5 -14 34.5t13.5 34.5t34.5 13.5t34.5 -13t13.5 -35q0 -21 -13.5 -34.5t-34.5 -13.5q-20 0 -34 13.5z" />
    <glyph glyph-name="ldot" unicode="&#x140;" horiz-adv-x="334" 
d="M71 108v588h68v-577q0 -29 11 -42.5t38 -13.5h39v-63h-49q-107 0 -107 108zM239 271.5q-13 13.5 -13 34.5t13 34.5t33 13.5q21 0 33.5 -13t12.5 -35q0 -21 -12.5 -34.5t-33.5 -13.5q-20 0 -33 13.5z" />
    <glyph glyph-name="Lslash" unicode="&#x141;" horiz-adv-x="429" 
d="M419 65v-65h-337v296l-68 -22v67l68 22v293h71v-273l148 48v-66l-148 -49v-251h266z" />
    <glyph glyph-name="lslash" unicode="&#x142;" horiz-adv-x="255" 
d="M147 353v-234q0 -29 11 -42.5t39 -13.5h38v-63h-49q-107 0 -107 108v225l-65 -21v67l65 21v296h68v-277l96 32v-67z" />
    <glyph glyph-name="Nacute" unicode="&#x143;" horiz-adv-x="499" 
d="M430 656v-656h-75l-218 507v-507h-68v656h75l218 -511v511h68zM379 855v-62l-260 -66v62z" />
    <glyph glyph-name="nacute" unicode="&#x144;" horiz-adv-x="459" 
d="M358.5 464.5q38.5 -40.5 38.5 -115.5v-349h-69v338q0 51 -23 76.5t-72 25.5q-30 0 -56.5 -15.5t-41.5 -41.5v-383h-69v494h60l4 -43q21 26 51.5 40t66.5 14q72 0 110.5 -40.5zM363 693v-62l-260 -66v62z" />
    <glyph glyph-name="uni0145" unicode="&#x145;" horiz-adv-x="499" 
d="M430 656v-656h-75l-218 507v-507h-68v656h75l218 -511v511h68zM284 -58l-43 -146h-65l38 146h70z" />
    <glyph glyph-name="uni0146" unicode="&#x146;" horiz-adv-x="459" 
d="M358.5 464.5q38.5 -40.5 38.5 -115.5v-349h-69v338q0 51 -23 76.5t-72 25.5q-30 0 -56.5 -15.5t-41.5 -41.5v-383h-69v494h60l4 -43q21 26 51.5 40t66.5 14q72 0 110.5 -40.5zM267 -58l-43 -146h-65l38 146h70z" />
    <glyph glyph-name="Ncaron" unicode="&#x147;" horiz-adv-x="499" 
d="M430 656v-656h-75l-218 507v-507h-68v656h75l218 -511v511h68zM119 855l129 -62l131 62v-65l-131 -63l-129 63v65z" />
    <glyph glyph-name="ncaron" unicode="&#x148;" horiz-adv-x="459" 
d="M358.5 464.5q38.5 -40.5 38.5 -115.5v-349h-69v338q0 51 -23 76.5t-72 25.5q-30 0 -56.5 -15.5t-41.5 -41.5v-383h-69v494h60l4 -43q21 26 51.5 40t66.5 14q72 0 110.5 -40.5zM103 693l129 -62l131 62v-65l-131 -63l-129 63v65z" />
    <glyph glyph-name="Eng" unicode="&#x14a;" horiz-adv-x="499" 
d="M430 656v-684q0 -68 -33.5 -105t-95.5 -37h-64v65h52q37 0 55 21.5t18 67.5l-225 523v-507h-68v656h75l218 -506v506h68z" />
    <glyph glyph-name="eng" unicode="&#x14b;" horiz-adv-x="459" 
d="M358.5 464.5q38.5 -40.5 38.5 -115.5v-371q0 -71 -35 -109.5t-100 -38.5h-59v64h50q38 0 56.5 22t18.5 68v354q0 51 -23 76.5t-72 25.5q-30 0 -56.5 -15.5t-41.5 -41.5v-383h-69v494h60l4 -43q21 26 51.5 40t66.5 14q72 0 110.5 -40.5z" />
    <glyph glyph-name="Omacron" unicode="&#x14c;" horiz-adv-x="512" 
d="M118 38.5q-50 49.5 -50 135.5v307q0 87 50.5 136.5t137.5 49.5q88 0 138 -50t50 -136v-307q0 -86 -50 -135.5t-138 -49.5t-138 49.5zM342 87q31 33 31 92v297q0 60 -30.5 93t-86.5 33t-86.5 -33t-30.5 -93v-297q0 -59 31 -92t86 -33t86 33zM386 822v-61h-260v61h260z" />
    <glyph glyph-name="omacron" unicode="&#x14d;" 
d="M101.5 30.5q-45.5 41.5 -45.5 118.5v194q0 78 45.5 120t121.5 42t121.5 -42t45.5 -120v-194q0 -77 -45.5 -118.5t-121.5 -41.5t-121.5 41.5zM294 80q27 26 27 72v188q0 48 -27 74t-71 26t-71 -26t-27 -74v-188q0 -46 27 -72t71 -26t71 26zM353 660v-61h-260v61h260z" />
    <glyph glyph-name="Obreve" unicode="&#x14e;" horiz-adv-x="512" 
d="M118 38.5q-50 49.5 -50 135.5v307q0 87 50.5 136.5t137.5 49.5q88 0 138 -50t50 -136v-307q0 -86 -50 -135.5t-138 -49.5t-138 49.5zM342 87q31 33 31 92v297q0 60 -30.5 93t-86.5 33t-86.5 -33t-30.5 -93v-297q0 -59 31 -92t86 -33t86 33zM126 781v63q26 -20 59.5 -31.5
t72.5 -11.5q76 0 128 43v-63q-24 -20 -57 -31t-71 -11q-78 0 -132 42z" />
    <glyph glyph-name="obreve" unicode="&#x14f;" 
d="M101.5 30.5q-45.5 41.5 -45.5 118.5v194q0 78 45.5 120t121.5 42t121.5 -42t45.5 -120v-194q0 -77 -45.5 -118.5t-121.5 -41.5t-121.5 41.5zM294 80q27 26 27 72v188q0 48 -27 74t-71 26t-71 -26t-27 -74v-188q0 -46 27 -72t71 -26t71 26zM93 619v63q26 -20 59.5 -31.5
t72.5 -11.5q76 0 128 43v-63q-24 -20 -57 -31t-71 -11q-78 0 -132 42z" />
    <glyph glyph-name="Ohungarumlaut" unicode="&#x150;" horiz-adv-x="512" 
d="M118 38.5q-50 49.5 -50 135.5v307q0 87 50.5 136.5t137.5 49.5q88 0 138 -50t50 -136v-307q0 -86 -50 -135.5t-138 -49.5t-138 49.5zM342 87q31 33 31 92v297q0 60 -30.5 93t-86.5 33t-86.5 -33t-30.5 -93v-297q0 -59 31 -92t86 -33t86 33zM289 856v-64l-183 -65v63z
M482 856v-64l-182 -65v63z" />
    <glyph glyph-name="ohungarumlaut" unicode="&#x151;" 
d="M101.5 30.5q-45.5 41.5 -45.5 118.5v194q0 78 45.5 120t121.5 42t121.5 -42t45.5 -120v-194q0 -77 -45.5 -118.5t-121.5 -41.5t-121.5 41.5zM294 80q27 26 27 72v188q0 48 -27 74t-71 26t-71 -26t-27 -74v-188q0 -46 27 -72t71 -26t71 26zM256 694v-64l-183 -65v63z
M449 694v-64l-182 -65v63z" />
    <glyph glyph-name="OE" unicode="&#x152;" horiz-adv-x="708" 
d="M118.5 49.5q-50.5 49.5 -50.5 138.5v279q0 90 50.5 139.5t140.5 49.5h418v-65h-251v-231h237v-65h-237v-230h251v-65h-418q-90 0 -140.5 49.5zM355 591h-98q-57 0 -87.5 -33t-30.5 -94v-272q0 -61 30.5 -94t87.5 -33h98v526z" />
    <glyph glyph-name="oe" unicode="&#x153;" horiz-adv-x="711" 
d="M394 224v-75q0 -44 26 -70t70 -26t70.5 27.5t26.5 74.5h68q-2 -78 -45 -122t-119 -44q-45 0 -80.5 18.5t-55.5 52.5q-20 -34 -54.5 -52.5t-79.5 -18.5q-76 0 -120.5 44.5t-44.5 119.5v186q0 77 44.5 121.5t120.5 44.5q45 0 79.5 -19t54.5 -53q21 34 56 53t80 19
q75 0 119.5 -43.5t44.5 -118.5v-119h-261zM316 340q0 46 -25.5 73t-68.5 27q-45 0 -71 -27t-26 -73v-188q0 -44 26.5 -71t70.5 -27q43 0 68.5 26.5t25.5 71.5v188zM420 413q-26 -27 -26 -72v-60h193v60q0 45 -26.5 72t-70.5 27t-70 -27z" />
    <glyph glyph-name="Racute" unicode="&#x154;" horiz-adv-x="486" 
d="M408 339.5q-39 -43.5 -114 -50.5l151 -278v-11h-70l-156 288h-79v-288h-71v656h197q88 0 134.5 -44.5t46.5 -129.5v-20q0 -79 -39 -122.5zM376 482q0 53 -29 81t-86 28h-121v-239h121q115 0 115 110v20zM360 855v-62l-260 -66v62z" />
    <glyph glyph-name="racute" unicode="&#x155;" horiz-adv-x="307" 
d="M297 494v-64h-57q-37 0 -62.5 -16t-38.5 -46v-368h-68v494h59l4 -45q42 45 106 45h57zM309 693v-62l-260 -66v62z" />
    <glyph glyph-name="uni0156" unicode="&#x156;" horiz-adv-x="486" 
d="M408 339.5q-39 -43.5 -114 -50.5l151 -278v-11h-70l-156 288h-79v-288h-71v656h197q88 0 134.5 -44.5t46.5 -129.5v-20q0 -79 -39 -122.5zM376 482q0 53 -29 81t-86 28h-121v-239h121q115 0 115 110v20zM279 -58l-43 -146h-65l38 146h70z" />
    <glyph glyph-name="uni0157" unicode="&#x157;" horiz-adv-x="307" 
d="M297 494v-64h-57q-37 0 -62.5 -16t-38.5 -46v-368h-68v494h59l4 -45q42 45 106 45h57zM140 -58l-43 -146h-65l38 146h70z" />
    <glyph glyph-name="Rcaron" unicode="&#x158;" horiz-adv-x="486" 
d="M408 339.5q-39 -43.5 -114 -50.5l151 -278v-11h-70l-156 288h-79v-288h-71v656h197q88 0 134.5 -44.5t46.5 -129.5v-20q0 -79 -39 -122.5zM376 482q0 53 -29 81t-86 28h-121v-239h121q115 0 115 110v20zM100 855l129 -62l131 62v-65l-131 -63l-129 63v65z" />
    <glyph glyph-name="rcaron" unicode="&#x159;" horiz-adv-x="307" 
d="M297 494v-64h-57q-37 0 -62.5 -16t-38.5 -46v-368h-68v494h59l4 -45q42 45 106 45h57zM49 693l129 -62l131 62v-65l-131 -63l-129 63v65z" />
    <glyph glyph-name="Sacute" unicode="&#x15a;" horiz-adv-x="458" 
d="M93 36.5q-47 47.5 -47 135.5v30h69v-30q0 -57 29 -87.5t83 -30.5q53 0 83.5 27.5t30.5 75.5v12q0 42 -22.5 71.5t-78.5 54.5l-49 22q-70 32 -102.5 72t-32.5 98v17q0 74 48 118.5t130 44.5t128 -45.5t46 -127.5v-30h-70v30q0 53 -26 81t-79 28q-50 0 -78 -25.5t-28 -71.5
v-11q0 -39 20.5 -66t72.5 -50l51 -22q74 -33 107.5 -75.5t33.5 -105.5v-17q0 -78 -49.5 -124t-135.5 -46q-87 0 -134 47.5zM359 855v-62l-260 -66v62z" />
    <glyph glyph-name="sacute" unicode="&#x15b;" horiz-adv-x="427" 
d="M93.5 27q-42.5 38 -42.5 107v19h68v-19q0 -39 25.5 -61t69.5 -22q42 0 67.5 20t25.5 53v9q0 32 -19 50.5t-63 31.5l-48 14q-116 33 -116 132v13q0 60 42 95.5t114 35.5q74 0 116 -38t42 -105v-19h-68v19q0 37 -25 59t-66 22q-40 0 -63.5 -18.5t-23.5 -49.5v-9
q0 -30 16.5 -48.5t53.5 -28.5l55 -15q64 -17 93 -49.5t29 -87.5v-14q0 -62 -43.5 -98t-118.5 -36q-78 0 -120.5 38zM341 693v-62l-260 -66v62z" />
    <glyph glyph-name="Scircumflex" unicode="&#x15c;" horiz-adv-x="458" 
d="M93 36.5q-47 47.5 -47 135.5v30h69v-30q0 -57 29 -87.5t83 -30.5q53 0 83.5 27.5t30.5 75.5v12q0 42 -22.5 71.5t-78.5 54.5l-49 22q-70 32 -102.5 72t-32.5 98v17q0 74 48 118.5t130 44.5t128 -45.5t46 -127.5v-30h-70v30q0 53 -26 81t-79 28q-50 0 -78 -25.5t-28 -71.5
v-11q0 -39 20.5 -66t72.5 -50l51 -22q74 -33 107.5 -75.5t33.5 -105.5v-17q0 -78 -49.5 -124t-135.5 -46q-87 0 -134 47.5zM228 856l131 -63v-65l-131 62l-129 -62v65z" />
    <glyph glyph-name="scircumflex" unicode="&#x15d;" horiz-adv-x="427" 
d="M93.5 27q-42.5 38 -42.5 107v19h68v-19q0 -39 25.5 -61t69.5 -22q42 0 67.5 20t25.5 53v9q0 32 -19 50.5t-63 31.5l-48 14q-116 33 -116 132v13q0 60 42 95.5t114 35.5q74 0 116 -38t42 -105v-19h-68v19q0 37 -25 59t-66 22q-40 0 -63.5 -18.5t-23.5 -49.5v-9
q0 -30 16.5 -48.5t53.5 -28.5l55 -15q64 -17 93 -49.5t29 -87.5v-14q0 -62 -43.5 -98t-118.5 -36q-78 0 -120.5 38zM210 694l131 -63v-65l-131 62l-129 -62v65z" />
    <glyph glyph-name="Scedilla" unicode="&#x15e;" horiz-adv-x="458" 
d="M93 36.5q-47 47.5 -47 135.5v30h69v-30q0 -57 29 -87.5t83 -30.5q53 0 83.5 27.5t30.5 75.5v12q0 42 -22.5 71.5t-78.5 54.5l-49 22q-70 32 -102.5 72t-32.5 98v17q0 74 48 118.5t130 44.5t128 -45.5t46 -127.5v-30h-70v30q0 53 -26 81t-79 28q-50 0 -78 -25.5t-28 -71.5
v-11q0 -39 20.5 -66t72.5 -50l51 -22q74 -33 107.5 -75.5t33.5 -105.5v-17q0 -78 -49.5 -124t-135.5 -46q-87 0 -134 47.5zM264 1l-42 -171h-71l45 182z" />
    <glyph glyph-name="scedilla" unicode="&#x15f;" horiz-adv-x="427" 
d="M93.5 27q-42.5 38 -42.5 107v19h68v-19q0 -39 25.5 -61t69.5 -22q42 0 67.5 20t25.5 53v9q0 32 -19 50.5t-63 31.5l-48 14q-116 33 -116 132v13q0 60 42 95.5t114 35.5q74 0 116 -38t42 -105v-19h-68v19q0 37 -25 59t-66 22q-40 0 -63.5 -18.5t-23.5 -49.5v-9
q0 -30 16.5 -48.5t53.5 -28.5l55 -15q64 -17 93 -49.5t29 -87.5v-14q0 -62 -43.5 -98t-118.5 -36q-78 0 -120.5 38zM247 1l-42 -171h-71l45 182z" />
    <glyph glyph-name="Scaron" unicode="&#x160;" horiz-adv-x="458" 
d="M93 36.5q-47 47.5 -47 135.5v30h69v-30q0 -57 29 -87.5t83 -30.5q53 0 83.5 27.5t30.5 75.5v12q0 42 -22.5 71.5t-78.5 54.5l-49 22q-70 32 -102.5 72t-32.5 98v17q0 74 48 118.5t130 44.5t128 -45.5t46 -127.5v-30h-70v30q0 53 -26 81t-79 28q-50 0 -78 -25.5t-28 -71.5
v-11q0 -39 20.5 -66t72.5 -50l51 -22q74 -33 107.5 -75.5t33.5 -105.5v-17q0 -78 -49.5 -124t-135.5 -46q-87 0 -134 47.5zM99 855l129 -62l131 62v-65l-131 -63l-129 63v65z" />
    <glyph glyph-name="scaron" unicode="&#x161;" horiz-adv-x="427" 
d="M93.5 27q-42.5 38 -42.5 107v19h68v-19q0 -39 25.5 -61t69.5 -22q42 0 67.5 20t25.5 53v9q0 32 -19 50.5t-63 31.5l-48 14q-116 33 -116 132v13q0 60 42 95.5t114 35.5q74 0 116 -38t42 -105v-19h-68v19q0 37 -25 59t-66 22q-40 0 -63.5 -18.5t-23.5 -49.5v-9
q0 -30 16.5 -48.5t53.5 -28.5l55 -15q64 -17 93 -49.5t29 -87.5v-14q0 -62 -43.5 -98t-118.5 -36q-78 0 -120.5 38zM81 693l129 -62l131 62v-65l-131 -63l-129 63v65z" />
    <glyph glyph-name="uni0162" unicode="&#x162;" horiz-adv-x="404" 
d="M10 591v65h384v-65h-156v-591h-72v591h-156zM238 1l-42 -171h-71l45 182z" />
    <glyph glyph-name="uni0163" unicode="&#x163;" horiz-adv-x="348" 
d="M189 430v-293q0 -36 18 -55t50 -19h55v-63h-64q-61 0 -94 33t-33 94v303h-116v64h94q14 0 19 5.5t5 17.5v110h66v-133h146v-64h-146zM265 1l-42 -171h-71l45 182z" />
    <glyph glyph-name="Tcaron" unicode="&#x164;" horiz-adv-x="404" 
d="M10 591v65h384v-65h-156v-591h-72v591h-156zM72 855l129 -62l131 62v-65l-131 -63l-129 63v65z" />
    <glyph glyph-name="tcaron" unicode="&#x165;" horiz-adv-x="418" 
d="M189 430v-293q0 -36 18 -55t50 -19h55v-63h-64q-61 0 -94 33t-33 94v303h-116v64h94q14 0 19 5.5t5 17.5v110h66v-133h146v-64h-146zM405 740l-55 -184h-59l36 184h78z" />
    <glyph glyph-name="Tbar" unicode="&#x166;" horiz-adv-x="424" 
d="M248 591v-240h136v-63h-136v-288h-72v288h-136v63h136v240h-156v65h384v-65h-156z" />
    <glyph glyph-name="tbar" unicode="&#x167;" horiz-adv-x="368" 
d="M199 433v-153h141v-61h-141v-82q0 -36 18 -55t50 -19h55v-63h-64q-61 0 -94 33t-33 94v92h-116v61h116v153h-116v61h94q14 0 19 5.5t5 17.5v110h66v-133h141v-61h-141z" />
    <glyph glyph-name="Utilde" unicode="&#x168;" horiz-adv-x="495" 
d="M114.5 35q-45.5 46 -45.5 133v488h71v-487q0 -56 27.5 -85.5t80.5 -29.5q52 0 79.5 29.5t27.5 85.5v487h71v-488q0 -88 -45.5 -133.5t-132.5 -45.5q-88 0 -133.5 46zM252 761q-15 5 -30.5 9.5t-30.5 4.5q-35 0 -71 -21v60q37 22 72 22q15 0 30.5 -4.5t30.5 -9.5
q40 -14 65 -14q32 0 62 15v-61q-30 -15 -62 -15q-26 0 -66 14z" />
    <glyph glyph-name="utilde" unicode="&#x169;" horiz-adv-x="459" 
d="M393 494v-494h-60l-4 42q-21 -25 -51.5 -39t-66.5 -14q-72 0 -110.5 40.5t-38.5 114.5v350h69v-339q0 -50 23 -75.5t72 -25.5q30 0 56.5 15t41.5 41v384h69zM230 598q-15 5 -30.5 9.5t-30.5 4.5q-35 0 -71 -21v60q37 22 72 22q15 0 30.5 -4.5t30.5 -9.5q40 -14 65 -14
q32 0 62 15v-61q-30 -15 -62 -15q-26 0 -66 14z" />
    <glyph glyph-name="Umacron" unicode="&#x16a;" horiz-adv-x="495" 
d="M114.5 35q-45.5 46 -45.5 133v488h71v-487q0 -56 27.5 -85.5t80.5 -29.5q52 0 79.5 29.5t27.5 85.5v487h71v-488q0 -88 -45.5 -133.5t-132.5 -45.5q-88 0 -133.5 46zM380 822v-61h-260v61h260z" />
    <glyph glyph-name="umacron" unicode="&#x16b;" horiz-adv-x="459" 
d="M393 494v-494h-60l-4 42q-21 -25 -51.5 -39t-66.5 -14q-72 0 -110.5 40.5t-38.5 114.5v350h69v-339q0 -50 23 -75.5t72 -25.5q30 0 56.5 15t41.5 41v384h69zM358 659v-61h-260v61h260z" />
    <glyph glyph-name="Ubreve" unicode="&#x16c;" horiz-adv-x="495" 
d="M114.5 35q-45.5 46 -45.5 133v488h71v-487q0 -56 27.5 -85.5t80.5 -29.5q52 0 79.5 29.5t27.5 85.5v487h71v-488q0 -88 -45.5 -133.5t-132.5 -45.5q-88 0 -133.5 46zM120 781v63q26 -20 59.5 -31.5t72.5 -11.5q76 0 128 43v-63q-24 -20 -57 -31t-71 -11q-78 0 -132 42z
" />
    <glyph glyph-name="ubreve" unicode="&#x16d;" horiz-adv-x="459" 
d="M393 494v-494h-60l-4 42q-21 -25 -51.5 -39t-66.5 -14q-72 0 -110.5 40.5t-38.5 114.5v350h69v-339q0 -50 23 -75.5t72 -25.5q30 0 56.5 15t41.5 41v384h69zM98 618v63q26 -20 59.5 -31.5t72.5 -11.5q76 0 128 43v-63q-24 -20 -57 -31t-71 -11q-78 0 -132 42z" />
    <glyph glyph-name="Uring" unicode="&#x16e;" horiz-adv-x="495" 
d="M114.5 35q-45.5 46 -45.5 133v488h71v-487q0 -56 27.5 -85.5t80.5 -29.5q52 0 79.5 29.5t27.5 85.5v487h71v-488q0 -88 -45.5 -133.5t-132.5 -45.5q-88 0 -133.5 46zM173 733.5q-30 28.5 -30 74.5t30 75.5t77 29.5q48 0 77.5 -29t29.5 -76q0 -46 -29.5 -74.5t-77.5 -28.5
q-47 0 -77 28.5zM291 767.5q15 15.5 15 40.5t-15 40.5t-40 15.5q-24 0 -40.5 -15.5t-16.5 -40.5t16 -40.5t41 -15.5t40 15.5z" />
    <glyph glyph-name="uring" unicode="&#x16f;" horiz-adv-x="459" 
d="M393 494v-494h-60l-4 42q-21 -25 -51.5 -39t-66.5 -14q-72 0 -110.5 40.5t-38.5 114.5v350h69v-339q0 -50 23 -75.5t72 -25.5q30 0 56.5 15t41.5 41v384h69zM151 570.5q-30 28.5 -30 74.5t30 75.5t77 29.5q48 0 77.5 -29t29.5 -76q0 -46 -29.5 -74.5t-77.5 -28.5
q-47 0 -77 28.5zM269 604.5q15 15.5 15 40.5t-15 40.5t-40 15.5q-24 0 -40.5 -15.5t-16.5 -40.5t16 -40.5t41 -15.5t40 15.5z" />
    <glyph glyph-name="Uhungarumlaut" unicode="&#x170;" horiz-adv-x="495" 
d="M114.5 35q-45.5 46 -45.5 133v488h71v-487q0 -56 27.5 -85.5t80.5 -29.5q52 0 79.5 29.5t27.5 85.5v487h71v-488q0 -88 -45.5 -133.5t-132.5 -45.5q-88 0 -133.5 46zM283 856v-64l-183 -65v63zM476 856v-64l-182 -65v63z" />
    <glyph glyph-name="uhungarumlaut" unicode="&#x171;" horiz-adv-x="459" 
d="M393 494v-494h-60l-4 42q-21 -25 -51.5 -39t-66.5 -14q-72 0 -110.5 40.5t-38.5 114.5v350h69v-339q0 -50 23 -75.5t72 -25.5q30 0 56.5 15t41.5 41v384h69zM261 693v-64l-183 -65v63zM454 693v-64l-182 -65v63z" />
    <glyph glyph-name="Uogonek" unicode="&#x172;" horiz-adv-x="495" 
d="M114.5 35q-45.5 46 -45.5 133v488h71v-487q0 -56 27.5 -85.5t80.5 -29.5q52 0 79.5 29.5t27.5 85.5v487h71v-488q0 -88 -45.5 -133.5t-132.5 -45.5q-88 0 -133.5 46zM244 -150.5q-22 19.5 -22 51.5q0 19 10 37t33 43l72 80l51 -17l-79 -92q-12 -14 -16.5 -22.5
t-4.5 -16.5q0 -11 8 -17.5t24 -6.5h43v-59h-61q-36 0 -58 19.5z" />
    <glyph glyph-name="uogonek" unicode="&#x173;" horiz-adv-x="459" 
d="M393 494v-494h-60l-4 42q-21 -25 -51.5 -39t-66.5 -14q-72 0 -110.5 40.5t-38.5 114.5v350h69v-339q0 -50 23 -75.5t72 -25.5q30 0 56.5 15t41.5 41v384h69zM275 -151q-22 19 -22 48q0 21 10.5 38.5t35.5 41.5l71 67l24 -44l-58 -57q-9 -9 -13 -16t-4 -16q0 -22 30 -22
h45v-59h-62q-35 0 -57 19z" />
    <glyph glyph-name="Wcircumflex" unicode="&#x174;" horiz-adv-x="782" 
d="M748 656v-11l-153 -645h-83l-121 523l-121 -523h-82l-153 645v11h70l125 -542l127 542h69l127 -540l125 540h70zM390 856l131 -63v-65l-131 62l-129 -62v65z" />
    <glyph glyph-name="wcircumflex" unicode="&#x175;" horiz-adv-x="678" 
d="M649 494v-11l-129 -483h-80l-101 380l-101 -380h-80l-129 483v11h66l104 -407l104 407h72l104 -407l104 407h66zM338 694l131 -63v-65l-131 62l-129 -62v65z" />
    <glyph glyph-name="Ycircumflex" unicode="&#x176;" horiz-adv-x="454" 
d="M429 645l-166 -369v-276h-72v276l-166 369v11h69l133 -295l133 295h69v-11zM226 856l131 -63v-65l-131 62l-129 -62v65z" />
    <glyph glyph-name="ycircumflex" unicode="&#x177;" horiz-adv-x="464" 
d="M435 494v-11l-185 -550q-19 -58 -49 -80.5t-86 -22.5h-49v64h43q33 0 48.5 12t26.5 48l15 49l-170 480v11h72l134 -395l128 395h72zM231 694l131 -63v-65l-131 62l-129 -62v65z" />
    <glyph glyph-name="Ydieresis" unicode="&#x178;" horiz-adv-x="454" 
d="M429 645l-166 -369v-276h-72v276l-166 369v11h69l133 -295l133 295h69v-11zM108.5 758.5q-12.5 12.5 -12.5 32.5t12.5 32.5t31.5 12.5q20 0 32.5 -12t12.5 -33t-12.5 -33t-32.5 -12q-19 0 -31.5 12.5zM281 758.5q-13 12.5 -13 32.5t13 32.5t32 12.5q20 0 32.5 -12.5
t12.5 -32.5t-12.5 -32.5t-32.5 -12.5q-19 0 -32 12.5z" />
    <glyph glyph-name="Zacute" unicode="&#x179;" horiz-adv-x="426" 
d="M380 591l-261 -526h261v-65h-335v65l262 526h-256v65h329v-65zM343 855v-62l-260 -66v62z" />
    <glyph glyph-name="zacute" unicode="&#x17a;" horiz-adv-x="421" 
d="M369 430l-240 -367h240v-63h-317v63l238 367h-238v64h317v-64zM339 693v-62l-260 -66v62z" />
    <glyph glyph-name="Zdotaccent" unicode="&#x17b;" horiz-adv-x="426" 
d="M380 591l-261 -526h261v-65h-335v65l262 526h-256v65h329v-65zM177.5 755q-14.5 14 -14.5 36t14.5 36t35.5 14q22 0 36 -13.5t14 -36.5q0 -22 -14 -36t-36 -14q-21 0 -35.5 14z" />
    <glyph glyph-name="zdotaccent" unicode="&#x17c;" horiz-adv-x="421" 
d="M369 430l-240 -367h240v-63h-317v63l238 367h-238v64h317v-64zM173.5 593q-14.5 14 -14.5 36t14.5 36t35.5 14q22 0 36 -13.5t14 -36.5q0 -22 -14 -36t-36 -14q-21 0 -35.5 14z" />
    <glyph glyph-name="Zcaron" unicode="&#x17d;" horiz-adv-x="426" 
d="M380 591l-261 -526h261v-65h-335v65l262 526h-256v65h329v-65zM83 855l129 -62l131 62v-65l-131 -63l-129 63v65z" />
    <glyph glyph-name="zcaron" unicode="&#x17e;" horiz-adv-x="421" 
d="M369 430l-240 -367h240v-63h-317v63l238 367h-238v64h317v-64zM79 693l129 -62l131 62v-65l-131 -63l-129 63v65z" />
    <glyph glyph-name="uni018F" unicode="&#x18f;" horiz-adv-x="512" 
d="M393 616.5q51 -50.5 51 -135.5v-307q0 -86 -50.5 -135.5t-137.5 -49.5q-88 0 -138 50.5t-50 138.5v181h308v116q0 60 -31.5 93.5t-88.5 33.5q-119 0 -119 -140h-69q0 100 48.5 152.5t139.5 52.5q86 0 137 -50.5zM344.5 87q31.5 33 31.5 93v114h-239v-114
q0 -59 31.5 -92.5t87.5 -33.5q57 0 88.5 33z" />
    <glyph glyph-name="florin" unicode="&#x192;" horiz-adv-x="490" 
d="M450 297h-186v-285q0 -64 -30.5 -97.5t-99.5 -33.5h-59v64h54q67 0 67 70v282h-156v63h156v206q0 130 131 130h88v-64h-83q-33 0 -50.5 -18t-17.5 -52v-202h186v-63z" />
    <glyph glyph-name="uni01CD" unicode="&#x1cd;" horiz-adv-x="499" 
d="M465 11v-11h-72l-42 163h-202l-42 -163h-72v11l174 645h83zM334 228l-84 327l-84 -327h168zM120 855l129 -62l131 62v-65l-131 -63l-129 63v65z" />
    <glyph glyph-name="uni01CE" unicode="&#x1ce;" horiz-adv-x="462" 
d="M457 63v-63h-45q-69 0 -93 47q-43 -58 -129 -58q-66 0 -104.5 36.5t-38.5 100.5q0 62 38 97.5t118 48.5l104 17v53q0 98 -93 98q-47 0 -72 -25.5t-25 -73.5v-10h-68v10q0 79 42 121.5t121 42.5q80 0 121.5 -42t41.5 -124v-221q0 -55 50 -55h32zM263 68.5q30 19.5 44 51.5
v113l-89 -15q-53 -9 -78.5 -31.5t-25.5 -59.5q0 -36 22 -57t60 -21q37 0 67 19.5zM91 693l129 -62l131 62v-65l-131 -63l-129 63v65z" />
    <glyph glyph-name="uni01D2" unicode="&#x1d2;" 
d="M101.5 30.5q-45.5 41.5 -45.5 118.5v194q0 78 45.5 120t121.5 42t121.5 -42t45.5 -120v-194q0 -77 -45.5 -118.5t-121.5 -41.5t-121.5 41.5zM294 80q27 26 27 72v188q0 48 -27 74t-71 26t-71 -26t-27 -74v-188q0 -46 27 -72t71 -26t71 26zM93 693l129 -62l131 62v-65
l-131 -63l-129 63v65z" />
    <glyph glyph-name="Gcaron" unicode="&#x1e6;" horiz-adv-x="521" 
d="M377 443v33q0 59 -31 92.5t-86 33.5q-57 0 -89 -33t-32 -92v-298q0 -59 31.5 -91.5t88.5 -32.5q39 0 69 16.5t49 47.5v157h-144v64h214v-340h-59l-4 43q-48 -54 -128 -54q-86 0 -137 50t-51 135v307q0 87 51.5 136.5t140.5 49.5t138.5 -50t49.5 -141v-33h-71zM129 855
l129 -62l131 62v-65l-131 -63l-129 63v65z" />
    <glyph glyph-name="gcaron" unicode="&#x1e7;" horiz-adv-x="454" 
d="M390 494v-514q0 -77 -44 -119t-125 -42q-82 0 -125 42t-43 121v10h69v-10q0 -98 100 -98q47 0 73 25t26 71v94q-21 -23 -50.5 -35.5t-62.5 -12.5q-70 0 -111.5 43t-41.5 114v170q0 69 42 110.5t112 41.5q77 0 117 -54l3 43h61zM280 106.5q26 16.5 41 44.5v228
q-15 28 -41 44.5t-57 16.5q-45 0 -72 -28.5t-27 -75.5v-142q0 -47 27 -75.5t72 -28.5q31 0 57 16.5zM90 693l129 -62l131 62v-65l-131 -63l-129 63v65z" />
    <glyph glyph-name="uni01F4" unicode="&#x1f4;" horiz-adv-x="521" 
d="M377 443v33q0 59 -31 92.5t-86 33.5q-57 0 -89 -33t-32 -92v-298q0 -59 31.5 -91.5t88.5 -32.5q39 0 69 16.5t49 47.5v157h-144v64h214v-340h-59l-4 43q-48 -54 -128 -54q-86 0 -137 50t-51 135v307q0 87 51.5 136.5t140.5 49.5t138.5 -50t49.5 -141v-33h-71zM389 855
v-62l-260 -66v62z" />
    <glyph glyph-name="uni01F5" unicode="&#x1f5;" horiz-adv-x="454" 
d="M390 494v-514q0 -77 -44 -119t-125 -42q-82 0 -125 42t-43 121v10h69v-10q0 -98 100 -98q47 0 73 25t26 71v94q-21 -23 -50.5 -35.5t-62.5 -12.5q-70 0 -111.5 43t-41.5 114v170q0 69 42 110.5t112 41.5q77 0 117 -54l3 43h61zM280 106.5q26 16.5 41 44.5v228
q-15 28 -41 44.5t-57 16.5q-45 0 -72 -28.5t-27 -75.5v-142q0 -47 27 -75.5t72 -28.5q31 0 57 16.5zM350 693v-62l-260 -66v62z" />
    <glyph glyph-name="AEacute" unicode="&#x1fc;" horiz-adv-x="657" 
d="M362 590l30 -229h214v-66h-205l30 -230h195v-65h-258l-21 163h-201l-43 -163h-68v11l172 645h419v-66h-264zM292 590h-34l-95 -362h175zM459 855v-62l-260 -66v62z" />
    <glyph glyph-name="aeacute" unicode="&#x1fd;" horiz-adv-x="695" 
d="M379 231v-81q0 -44 27 -70t72 -26q43 0 68 27t25 74h68q-1 -79 -43.5 -122.5t-117.5 -43.5q-49 0 -86 17t-59 48q-22 -31 -57 -48t-80 -17q-71 0 -110 35.5t-39 99.5q0 61 37.5 96t118.5 48l101 16v61q0 46 -23.5 70.5t-68.5 24.5q-46 0 -70.5 -25.5t-24.5 -73.5v-10h-68
v10q0 80 41 122t118 42q49 0 83.5 -17.5t53.5 -51.5q21 33 56.5 51t80.5 18q70 0 113.5 -45t43.5 -117v-112h-260zM405.5 413q-26.5 -27 -26.5 -72v-53h192v53q0 44 -26 71.5t-68 27.5q-45 0 -71.5 -27zM265.5 68.5q27.5 19.5 40.5 54.5q-2 20 -2 31v73l-87 -14
q-53 -8 -78 -29t-25 -58t22.5 -57t63.5 -20q38 0 65.5 19.5zM475 693v-62l-260 -66v62z" />
    <glyph glyph-name="Oslashacute" unicode="&#x1fe;" horiz-adv-x="512" 
d="M430 560.5q14 -35.5 14 -79.5v-307q0 -86 -51 -135.5t-137 -49.5q-39 0 -74 11l-22 -65h-67v13l29 87q-54 49 -54 139v307q0 87 50.5 136.5t137.5 49.5q42 0 76 -12l22 66h66v-12l-30 -89q26 -24 40 -59.5zM136 179q0 -44 17 -73l161 484q-25 12 -58 12q-56 0 -88 -33
t-32 -93v-297zM376 476q0 42 -17 73l-161 -484q27 -11 58 -11q57 0 88.5 32.5t31.5 92.5v297zM386 855v-62l-260 -66v62z" />
    <glyph glyph-name="oslashacute" unicode="&#x1ff;" 
d="M391 343v-194q0 -75 -44.5 -117.5t-123.5 -42.5q-34 0 -63 9l-19 -50h-62v11l27 68q-50 42 -50 122v194q0 76 44 119t123 43q36 0 65 -9l18 49h62v-11l-26 -68q49 -43 49 -123zM120 152q0 -33 14 -56l134 340q-21 8 -44 8q-48 0 -76 -28t-28 -76v-188zM326 340
q0 33 -14 58l-132 -340q21 -8 44 -8q47 0 74.5 28t27.5 74v188zM353 693v-62l-260 -66v62z" />
    <glyph glyph-name="uni0218" unicode="&#x218;" horiz-adv-x="458" 
d="M93 36.5q-47 47.5 -47 135.5v30h69v-30q0 -57 29 -87.5t83 -30.5q53 0 83.5 27.5t30.5 75.5v12q0 42 -22.5 71.5t-78.5 54.5l-49 22q-70 32 -102.5 72t-32.5 98v17q0 74 48 118.5t130 44.5t128 -45.5t46 -127.5v-30h-70v30q0 53 -26 81t-79 28q-50 0 -78 -25.5t-28 -71.5
v-11q0 -39 20.5 -66t72.5 -50l51 -22q74 -33 107.5 -75.5t33.5 -105.5v-17q0 -78 -49.5 -124t-135.5 -46q-87 0 -134 47.5zM263 -58l-43 -146h-65l38 146h70z" />
    <glyph glyph-name="uni0219" unicode="&#x219;" horiz-adv-x="427" 
d="M93.5 27q-42.5 38 -42.5 107v19h68v-19q0 -39 25.5 -61t69.5 -22q42 0 67.5 20t25.5 53v9q0 32 -19 50.5t-63 31.5l-48 14q-116 33 -116 132v13q0 60 42 95.5t114 35.5q74 0 116 -38t42 -105v-19h-68v19q0 37 -25 59t-66 22q-40 0 -63.5 -18.5t-23.5 -49.5v-9
q0 -30 16.5 -48.5t53.5 -28.5l55 -15q64 -17 93 -49.5t29 -87.5v-14q0 -62 -43.5 -98t-118.5 -36q-78 0 -120.5 38zM246 -58l-43 -146h-65l38 146h70z" />
    <glyph glyph-name="uni021A" unicode="&#x21a;" horiz-adv-x="404" 
d="M10 591v65h384v-65h-156v-591h-72v591h-156zM236 -58l-43 -146h-65l38 146h70z" />
    <glyph glyph-name="uni021B" unicode="&#x21b;" horiz-adv-x="348" 
d="M189 430v-293q0 -36 18 -55t50 -19h55v-63h-64q-61 0 -94 33t-33 94v303h-116v64h94q14 0 19 5.5t5 17.5v110h66v-133h146v-64h-146zM264 -58l-43 -146h-65l38 146h70z" />
    <glyph glyph-name="uni0232" unicode="&#x232;" horiz-adv-x="454" 
d="M429 645l-166 -369v-276h-72v276l-166 369v11h69l133 -295l133 295h69v-11zM357 822v-61h-260v61h260z" />
    <glyph glyph-name="uni0233" unicode="&#x233;" horiz-adv-x="464" 
d="M435 494v-11l-185 -550q-19 -58 -49 -80.5t-86 -22.5h-49v64h43q33 0 48.5 12t26.5 48l15 49l-170 480v11h72l134 -395l128 395h72zM362 660v-61h-260v61h260z" />
    <glyph glyph-name="uni0237" unicode="&#x237;" horiz-adv-x="210" 
d="M-1 -106q35 0 53.5 19t18.5 54v527h68v-532q0 -61 -35 -96.5t-96 -35.5h-62v64h53z" />
    <glyph glyph-name="uni0259" unicode="&#x259;" 
d="M345.5 462q44.5 -43 44.5 -118v-193q0 -77 -44.5 -119.5t-122.5 -42.5t-122.5 43t-44.5 119v118h266v76q0 44 -27 69.5t-72 25.5q-46 0 -72.5 -26.5t-26.5 -75.5h-68q1 80 45.5 123.5t121.5 43.5q78 0 122.5 -43zM294.5 79.5q27.5 26.5 27.5 70.5v62h-198v-62
q0 -45 27 -71t72 -26q44 0 71.5 26.5z" />
    <glyph glyph-name="uni02BB" unicode="&#x2bb;" horiz-adv-x="600" 
d="M665 702l-38 -147h-72l44 147h66z" />
    <glyph glyph-name="uni02BC" unicode="&#x2bc;" horiz-adv-x="284" 
d="M199 698v-11l-69 -235h-63l53 246h79z" />
    <glyph glyph-name="circumflex" unicode="&#x2c6;" horiz-adv-x="600" 
d="M299 694l131 -63v-65l-131 62l-129 -62v65z" />
    <glyph glyph-name="caron" unicode="&#x2c7;" horiz-adv-x="600" 
d="M170 693l129 -62l131 62v-65l-131 -63l-129 63v65z" />
    <glyph glyph-name="uni02C9" unicode="&#x2c9;" horiz-adv-x="600" 
d="M730 660v-61h-260v61h260z" />
    <glyph glyph-name="breve" unicode="&#x2d8;" horiz-adv-x="600" 
d="M170 619v63q26 -20 59.5 -31.5t72.5 -11.5q76 0 128 43v-63q-24 -20 -57 -31t-71 -11q-78 0 -132 42z" />
    <glyph glyph-name="dotaccent" unicode="&#x2d9;" horiz-adv-x="600" 
d="M264.5 593q-14.5 14 -14.5 36t14.5 36t35.5 14q22 0 36 -13.5t14 -36.5q0 -22 -14 -36t-36 -14q-21 0 -35.5 14z" />
    <glyph glyph-name="ring" unicode="&#x2da;" horiz-adv-x="600" 
d="M222 571.5q-30 28.5 -30 74.5t30 75.5t77 29.5q48 0 77.5 -29t29.5 -76q0 -46 -29.5 -74.5t-77.5 -28.5q-47 0 -77 28.5zM340 605.5q15 15.5 15 40.5t-15 40.5t-40 15.5q-24 0 -40.5 -15.5t-16.5 -40.5t16 -40.5t41 -15.5t40 15.5z" />
    <glyph glyph-name="ogonek" unicode="&#x2db;" horiz-adv-x="600" 
d="M252 -151q-22 19 -22 48q0 21 10.5 38.5t35.5 41.5l71 67l24 -44l-58 -57q-9 -9 -13 -16t-4 -16q0 -22 30 -22h45v-59h-62q-35 0 -57 19z" />
    <glyph glyph-name="tilde" unicode="&#x2dc;" horiz-adv-x="600" 
d="M302 599q-15 5 -30.5 9.5t-30.5 4.5q-35 0 -71 -21v60q37 22 72 22q15 0 30.5 -4.5t30.5 -9.5q40 -14 65 -14q32 0 62 15v-61q-30 -15 -62 -15q-26 0 -66 14z" />
    <glyph glyph-name="hungarumlaut" unicode="&#x2dd;" horiz-adv-x="600" 
d="M295 694v-64l-183 -65v63zM488 694v-64l-182 -65v63z" />
    <glyph glyph-name="gravecomb" unicode="&#x300;" horiz-adv-x="0" 
d="M-130 693l260 -66v-62l-260 66v62z" />
    <glyph glyph-name="acutecomb" unicode="&#x301;" horiz-adv-x="0" 
d="M130 693v-62l-260 -66v62z" />
    <glyph glyph-name="uni0302" unicode="&#x302;" horiz-adv-x="0" 
d="M-1 694l131 -63v-65l-131 62l-129 -62v65z" />
    <glyph glyph-name="tildecomb" unicode="&#x303;" horiz-adv-x="0" 
d="M2 599q-15 5 -30.5 9.5t-30.5 4.5q-35 0 -71 -21v60q37 22 72 22q15 0 30.5 -4.5t30.5 -9.5q40 -14 65 -14q32 0 62 15v-61q-30 -15 -62 -15q-26 0 -66 14z" />
    <glyph glyph-name="uni0304" unicode="&#x304;" horiz-adv-x="0" 
d="M130 660v-61h-260v61h260z" />
    <glyph glyph-name="uni0306" unicode="&#x306;" horiz-adv-x="0" 
d="M-130 619v63q26 -20 59.5 -31.5t72.5 -11.5q76 0 128 43v-63q-24 -20 -57 -31t-71 -11q-78 0 -132 42z" />
    <glyph glyph-name="uni0307" unicode="&#x307;" horiz-adv-x="0" 
d="M-35.5 593q-14.5 14 -14.5 36t14.5 36t35.5 14q22 0 36 -13.5t14 -36.5q0 -22 -14 -36t-36 -14q-21 0 -35.5 14z" />
    <glyph glyph-name="uni0308" unicode="&#x308;" horiz-adv-x="0" 
d="M-118.5 596.5q-12.5 12.5 -12.5 32.5t12.5 32.5t31.5 12.5q20 0 32.5 -12t12.5 -33t-12.5 -33t-32.5 -12q-19 0 -31.5 12.5zM54 596.5q-13 12.5 -13 32.5t13 32.5t32 12.5q20 0 32.5 -12.5t12.5 -32.5t-12.5 -32.5t-32.5 -12.5q-19 0 -32 12.5z" />
    <glyph glyph-name="uni030A" unicode="&#x30a;" horiz-adv-x="0" 
d="M-77 571.5q-30 28.5 -30 74.5t30 75.5t77 29.5q48 0 77.5 -29t29.5 -76q0 -46 -29.5 -74.5t-77.5 -28.5q-47 0 -77 28.5zM41 605.5q15 15.5 15 40.5t-15 40.5t-40 15.5q-24 0 -40.5 -15.5t-16.5 -40.5t16 -40.5t41 -15.5t40 15.5z" />
    <glyph glyph-name="uni030B" unicode="&#x30b;" horiz-adv-x="0" 
d="M33 694v-64l-183 -65v63zM226 694v-64l-182 -65v63z" />
    <glyph glyph-name="uni030C" unicode="&#x30c;" horiz-adv-x="0" 
d="M-130 693l129 -62l131 62v-65l-131 -63l-129 63v65z" />
    <glyph glyph-name="uni0312" unicode="&#x312;" horiz-adv-x="0" 
d="M65 702l-38 -147h-72l44 147h66z" />
    <glyph glyph-name="dotbelowcomb" unicode="&#x323;" horiz-adv-x="0" 
d="M-35.5 -172q-14.5 14 -14.5 36t14.5 36t35.5 14q22 0 36 -14t14 -36t-14 -36t-36 -14q-21 0 -35.5 14z" />
    <glyph glyph-name="uni0326" unicode="&#x326;" horiz-adv-x="0" 
d="M35 -58l-43 -146h-65l38 146h70z" />
    <glyph glyph-name="uni0327" unicode="&#x327;" horiz-adv-x="0" 
d="M36 1l-42 -171h-71l45 182z" />
    <glyph glyph-name="uni0328" unicode="&#x328;" horiz-adv-x="0" 
d="M-118 -151q-22 19 -22 48q0 21 10.5 38.5t35.5 41.5l71 67l24 -44l-58 -57q-9 -9 -13 -16t-4 -16q0 -22 30 -22h45v-59h-62q-35 0 -57 19z" />
    <glyph glyph-name="uni0374" unicode="&#x374;" horiz-adv-x="284" 
d="M199 656v-11l-69 -242h-63l53 253h79z" />
    <glyph glyph-name="tonos" unicode="&#x384;" horiz-adv-x="600" 
d="M342 759l-20 -204h-65l20 204h65z" />
    <glyph glyph-name="dieresistonos" unicode="&#x385;" horiz-adv-x="600" 
d="M346 759l-20 -204h-65l20 204h65zM147.5 596.5q-12.5 12.5 -12.5 32.5t12.5 32.5t32.5 12.5t32 -12.5t12 -32.5t-12 -32.5t-32 -12.5t-32.5 12.5zM387.5 596.5q-12.5 12.5 -12.5 32.5t12.5 32.5t32.5 12.5t32 -12.5t12 -32.5t-12.5 -32.5t-31.5 -12.5q-20 0 -32.5 12.5z
" />
    <glyph glyph-name="Alphatonos" unicode="&#x386;" horiz-adv-x="499" 
d="M465 11v-11h-72l-42 163h-202l-42 -163h-72v11l174 645h83zM334 228l-84 327l-84 -327h168zM65 656l-20 -204h-65l20 204h65z" />
    <glyph glyph-name="anoteleia" unicode="&#x387;" horiz-adv-x="284" 
d="M108 410.5q-14 13.5 -14 34.5t13.5 34.5t34.5 13.5t34.5 -13t13.5 -35q0 -21 -13.5 -34.5t-34.5 -13.5q-20 0 -34 13.5z" />
    <glyph glyph-name="Epsilontonos" unicode="&#x388;" horiz-adv-x="429" 
d="M398 656v-65h-258v-231h244v-65h-244v-230h258v-65h-329v656h329zM-38 656l-20 -204h-65l20 204h65z" />
    <glyph glyph-name="Etatonos" unicode="&#x389;" horiz-adv-x="499" 
d="M140 656v-296h219v296h71v-656h-71v295h-219v-295h-71v656h71zM-38 656l-20 -204h-65l20 204h65z" />
    <glyph glyph-name="Iotatonos" unicode="&#x38a;" horiz-adv-x="220" 
d="M146 656v-656h-72v656h72zM-38 656l-20 -204h-65l20 204h65z" />
    <glyph glyph-name="Omicrontonos" unicode="&#x38c;" horiz-adv-x="512" 
d="M118 38.5q-50 49.5 -50 135.5v307q0 87 50.5 136.5t137.5 49.5q88 0 138 -50t50 -136v-307q0 -86 -50 -135.5t-138 -49.5t-138 49.5zM342 87q31 33 31 92v297q0 60 -30.5 93t-86.5 33t-86.5 -33t-30.5 -93v-297q0 -59 31 -92t86 -33t86 33zM-16 656l-20 -204h-65l20 204
h65z" />
    <glyph glyph-name="Upsilontonos" unicode="&#x38e;" horiz-adv-x="454" 
d="M429 645l-166 -369v-276h-72v276l-166 369v11h69l133 -295l133 295h69v-11zM-41 656l-20 -204h-65l20 204h65z" />
    <glyph glyph-name="Omegatonos" unicode="&#x38f;" horiz-adv-x="512" 
d="M417.5 170q-26.5 -44 -74.5 -62v-43h101v-65h-160v159q89 18 89 120v197q0 59 -31 92.5t-86 33.5t-86 -33.5t-31 -92.5v-197q0 -51 23 -82t67 -38v-159h-161v65h101v44q-48 17 -74.5 61t-26.5 106v203q0 87 51 137.5t137 50.5t137 -50.5t51 -137.5v-203q0 -62 -26.5 -106
zM-16 656l-20 -204h-65l20 204h65z" />
    <glyph glyph-name="iotadieresistonos" unicode="&#x390;" horiz-adv-x="242" 
d="M99 26q-28 26 -28 87v381h68v-375q0 -30 11 -43t38 -13h49v-63h-55q-55 0 -83 26zM154 759l-20 -204h-65l20 204h65zM-44.5 596.5q-12.5 12.5 -12.5 32.5t12.5 32.5t32.5 12.5t32 -12.5t12 -32.5t-12 -32.5t-32 -12.5t-32.5 12.5zM195.5 596.5q-12.5 12.5 -12.5 32.5
t12.5 32.5t32.5 12.5t32 -12.5t12 -32.5t-12.5 -32.5t-31.5 -12.5q-20 0 -32.5 12.5z" />
    <glyph glyph-name="Alpha" unicode="&#x391;" horiz-adv-x="499" 
d="M465 11v-11h-72l-42 163h-202l-42 -163h-72v11l174 645h83zM334 228l-84 327l-84 -327h168z" />
    <glyph glyph-name="Beta" unicode="&#x392;" horiz-adv-x="483" 
d="M412 278.5q25 -39.5 25 -94.5v-20q0 -76 -47 -120t-130 -44h-191v656h180q84 0 130.5 -41.5t46.5 -117.5v-20q0 -52 -22 -88t-63 -54q46 -17 71 -56.5zM140 591v-226h103q54 0 83 27.5t29 78.5v18q0 102 -114 102h-101zM365 191q0 52 -29.5 81t-82.5 29h-113v-236h112
q55 0 84 27.5t29 79.5v19z" />
    <glyph glyph-name="Gamma" unicode="&#x393;" horiz-adv-x="416" 
d="M406 656v-65h-266v-591h-71v656h337z" />
    <glyph glyph-name="uni0394" unicode="&#x394;" horiz-adv-x="481" 
d="M444 65v-65h-407v65l162 591h82zM103 65h273l-136 519z" />
    <glyph glyph-name="Epsilon" unicode="&#x395;" horiz-adv-x="429" 
d="M398 656v-65h-258v-231h244v-65h-244v-230h258v-65h-329v656h329z" />
    <glyph glyph-name="Zeta" unicode="&#x396;" horiz-adv-x="426" 
d="M380 591l-261 -526h261v-65h-335v65l262 526h-256v65h329v-65z" />
    <glyph glyph-name="Eta" unicode="&#x397;" horiz-adv-x="499" 
d="M140 656v-296h219v296h71v-656h-71v295h-219v-295h-71v656h71z" />
    <glyph glyph-name="Theta" unicode="&#x398;" horiz-adv-x="512" 
d="M393 617q51 -50 51 -136v-307q0 -86 -51 -135.5t-137 -49.5t-137 49.5t-51 135.5v307q0 87 51 136.5t137 49.5t137 -50zM168.5 569q-31.5 -33 -31.5 -93v-115h239v115q0 60 -32 93t-88 33t-87.5 -33zM344 87q32 33 32 92v117h-239v-117q0 -60 31.5 -92.5t87.5 -32.5
t88 33z" />
    <glyph glyph-name="Iota" unicode="&#x399;" horiz-adv-x="220" 
d="M146 656v-656h-72v656h72z" />
    <glyph glyph-name="Kappa" unicode="&#x39a;" horiz-adv-x="496" 
d="M455 11v-11h-72l-168 303l-75 -110v-193h-71v656h71v-338l239 338h75v-11l-193 -280z" />
    <glyph glyph-name="Lambda" unicode="&#x39b;" horiz-adv-x="498" 
d="M463 11v-11h-71l-143 542l-143 -542h-72v11l174 645h82z" />
    <glyph glyph-name="Mu" unicode="&#x39c;" horiz-adv-x="629" 
d="M560 0h-69v518l-150 -518h-52l-151 519v-519h-69v656h92l153 -515l154 515h92v-656z" />
    <glyph glyph-name="Nu" unicode="&#x39d;" horiz-adv-x="499" 
d="M430 656v-656h-75l-218 507v-507h-68v656h75l218 -511v511h68z" />
    <glyph glyph-name="Xi" unicode="&#x39e;" horiz-adv-x="453" 
d="M261 591v-231h141v-65h-141v-230h161v-65h-391v65h162v230h-142v65h142v231h-162v65h391v-65h-161z" />
    <glyph glyph-name="Omicron" unicode="&#x39f;" horiz-adv-x="512" 
d="M118 38.5q-50 49.5 -50 135.5v307q0 87 50.5 136.5t137.5 49.5q88 0 138 -50t50 -136v-307q0 -86 -50 -135.5t-138 -49.5t-138 49.5zM342 87q31 33 31 92v297q0 60 -30.5 93t-86.5 33t-86.5 -33t-30.5 -93v-297q0 -59 31 -92t86 -33t86 33z" />
    <glyph glyph-name="Pi" unicode="&#x3a0;" horiz-adv-x="504" 
d="M435 656v-656h-71v590h-224v-590h-71v656h366z" />
    <glyph glyph-name="Rho" unicode="&#x3a1;" horiz-adv-x="482" 
d="M266 656q88 0 134.5 -44.5t46.5 -129.5v-20q0 -86 -46.5 -130.5t-134.5 -44.5h-126v-287h-71v656h197zM376 462v20q0 53 -29 81t-86 28h-121v-239h121q115 0 115 110z" />
    <glyph glyph-name="Sigma" unicode="&#x3a3;" horiz-adv-x="429" 
d="M398 591h-269l172 -246v-34l-172 -246h269v-65h-350v66l184 262l-184 262v66h350v-65z" />
    <glyph glyph-name="Tau" unicode="&#x3a4;" horiz-adv-x="404" 
d="M10 591v65h384v-65h-156v-591h-72v591h-156z" />
    <glyph glyph-name="Upsilon" unicode="&#x3a5;" horiz-adv-x="454" 
d="M429 645l-166 -369v-276h-72v276l-166 369v11h69l133 -295l133 295h69v-11z" />
    <glyph glyph-name="Phi" unicode="&#x3a6;" horiz-adv-x="726" 
d="M601.5 532.5q56.5 -54.5 56.5 -152.5v-106q0 -97 -56.5 -151t-159.5 -54h-43v-109h-72v109h-43q-103 0 -159.5 54t-56.5 151v106q0 98 56.5 152.5t159.5 54.5h43v109h72v-109h43q103 0 159.5 -54.5zM175.5 169.5q36.5 -35.5 108.5 -35.5h44v388h-44q-145 0 -145 -142
v-105q0 -70 36.5 -105.5zM587 380q0 142 -145 142h-44v-388h44q72 0 108.5 35.5t36.5 105.5v105z" />
    <glyph glyph-name="Chi" unicode="&#x3a7;" horiz-adv-x="496" 
d="M455 11v-11h-72l-135 273l-136 -273h-71v11l161 319l-160 315v11h72l134 -269l133 269h72v-11l-158 -315z" />
    <glyph glyph-name="Psi" unicode="&#x3a8;" horiz-adv-x="692" 
d="M637 656v-296q0 -91 -49.5 -140t-141.5 -49h-64v-171h-71v171h-65q-92 0 -141 49t-49 140v296h71v-296q0 -59 31 -91t89 -32h64v419h71v-419h64q57 0 88.5 32t31.5 91v296h71z" />
    <glyph glyph-name="uni03A9" unicode="&#x3a9;" horiz-adv-x="512" 
d="M417.5 170q-26.5 -44 -74.5 -62v-43h101v-65h-160v159q89 18 89 120v197q0 59 -31 92.5t-86 33.5t-86 -33.5t-31 -92.5v-197q0 -51 23 -82t67 -38v-159h-161v65h101v44q-48 17 -74.5 61t-26.5 106v203q0 87 51 137.5t137 50.5t137 -50.5t51 -137.5v-203q0 -62 -26.5 -106
z" />
    <glyph glyph-name="Iotadieresis" unicode="&#x3aa;" horiz-adv-x="220" 
d="M146 656v-656h-72v656h72zM-8.5 758.5q-12.5 12.5 -12.5 32.5t12.5 32.5t31.5 12.5q20 0 32.5 -12t12.5 -33t-12.5 -33t-32.5 -12q-19 0 -31.5 12.5zM164 758.5q-13 12.5 -13 32.5t13 32.5t32 12.5q20 0 32.5 -12.5t12.5 -32.5t-12.5 -32.5t-32.5 -12.5q-19 0 -32 12.5z
" />
    <glyph glyph-name="Upsilondieresis" unicode="&#x3ab;" horiz-adv-x="454" 
d="M429 645l-166 -369v-276h-72v276l-166 369v11h69l133 -295l133 295h69v-11zM108.5 758.5q-12.5 12.5 -12.5 32.5t12.5 32.5t31.5 12.5q20 0 32.5 -12t12.5 -33t-12.5 -33t-32.5 -12q-19 0 -31.5 12.5zM281 758.5q-13 12.5 -13 32.5t13 32.5t32 12.5q20 0 32.5 -12.5
t12.5 -32.5t-12.5 -32.5t-32.5 -12.5q-19 0 -32 12.5z" />
    <glyph glyph-name="alphatonos" unicode="&#x3ac;" horiz-adv-x="477" 
d="M472 63v-63h-45q-32 0 -55.5 12t-35.5 34q-43 -57 -125 -57q-71 0 -113 41t-42 110v213q0 69 41.5 110t110.5 41q37 0 67.5 -13.5t50.5 -39.5l4 43h60v-376q0 -55 50 -55h32zM279.5 69.5q26.5 15.5 42.5 42.5v269q-15 27 -41.5 43t-58.5 16q-44 0 -70.5 -27.5
t-26.5 -72.5v-186q0 -45 26.5 -72.5t70.5 -27.5q31 0 57.5 15.5zM283 759l-20 -204h-65l20 204h65z" />
    <glyph glyph-name="epsilontonos" unicode="&#x3ad;" horiz-adv-x="422" 
d="M388 158v-21q0 -72 -45 -110t-130 -38q-80 0 -125 36.5t-45 100.5v20q0 37 18.5 64.5t53.5 41.5q-32 14 -49.5 39.5t-17.5 60.5v19q0 62 45.5 97.5t124.5 35.5q77 0 121.5 -39.5t44.5 -108.5v-20h-68v20q0 40 -27 63t-73 23q-47 0 -73 -20.5t-26 -57.5v-16
q0 -32 21.5 -49.5t59.5 -17.5h76v-60h-78q-40 0 -62.5 -19t-22.5 -53v-16q0 -39 27 -60t77 -21q51 0 78.5 22t27.5 63v21h67zM269 758l-20 -204h-65l20 204h65z" />
    <glyph glyph-name="etatonos" unicode="&#x3ae;" horiz-adv-x="502" 
d="M381.5 463.5q39.5 -41.5 39.5 -114.5v-519h-70v508q0 50 -23 76t-67 26q-34 0 -61 -15t-42 -42v-383h-69v373q0 54 -49 54h-35v67h47q66 0 92 -44q21 27 53.5 41t73.5 14q71 0 110.5 -41.5zM326 759l-20 -204h-65l20 204h65z" />
    <glyph glyph-name="iotatonos" unicode="&#x3af;" horiz-adv-x="242" 
d="M99 26q-28 26 -28 87v381h68v-375q0 -30 11 -43t38 -13h49v-63h-55q-55 0 -83 26zM157 759l-20 -204h-65l20 204h65z" />
    <glyph glyph-name="upsilondieresistonos" unicode="&#x3b0;" horiz-adv-x="457" 
d="M106.5 30q-43.5 41 -43.5 117v347h69v-346q0 -46 25.5 -70.5t71.5 -24.5q45 0 70.5 25t25.5 70v346h69v-347q0 -75 -43 -116.5t-121 -41.5q-80 0 -123.5 41zM279 759l-20 -204h-65l20 204h65zM80.5 596.5q-12.5 12.5 -12.5 32.5t12.5 32.5t32.5 12.5t32 -12.5t12 -32.5
t-12 -32.5t-32 -12.5t-32.5 12.5zM320.5 596.5q-12.5 12.5 -12.5 32.5t12.5 32.5t32.5 12.5t32 -12.5t12 -32.5t-12.5 -32.5t-31.5 -12.5q-20 0 -32.5 12.5z" />
    <glyph glyph-name="alpha" unicode="&#x3b1;" horiz-adv-x="477" 
d="M472 63v-63h-45q-32 0 -55.5 12t-35.5 34q-43 -57 -125 -57q-71 0 -113 41t-42 110v213q0 69 41.5 110t110.5 41q37 0 67.5 -13.5t50.5 -39.5l4 43h60v-376q0 -55 50 -55h32zM279.5 69.5q26.5 15.5 42.5 42.5v269q-15 27 -41.5 43t-58.5 16q-44 0 -70.5 -27.5
t-26.5 -72.5v-186q0 -45 26.5 -72.5t70.5 -27.5q31 0 57.5 15.5z" />
    <glyph glyph-name="beta" unicode="&#x3b2;" horiz-adv-x="457" 
d="M395 297q21 -36 21 -90v-54q0 -77 -43.5 -120.5t-121.5 -43.5q-69 0 -116 35v-194h-69v711q0 78 45.5 122t125.5 44q78 0 122 -44.5t44 -123.5v-62q0 -93 -69 -127q40 -17 61 -53zM348 216q0 47 -25 73.5t-71 26.5h-49v63h40q44 0 68 24t24 69v70q0 48 -25.5 74t-72.5 26
q-48 0 -75 -27t-27 -76v-431q31 -54 105 -54q52 0 80 26.5t28 75.5v60z" />
    <glyph glyph-name="gamma" unicode="&#x3b3;" 
d="M417 483l-160 -496v-157h-68v157l-160 496v11h67l127 -401l126 401h68v-11z" />
    <glyph glyph-name="delta" unicode="&#x3b4;" 
d="M371 400q19 -38 19 -90v-161q0 -74 -44.5 -117t-122.5 -43t-122.5 43t-44.5 117v168q0 78 42.5 119.5t123.5 43.5l-151 149v67h304v-63h-218l145 -145q50 -50 69 -88zM322 311q0 36 -9.5 60.5t-35.5 52.5q-18 2 -30 2q-59 0 -90.5 -28.5t-31.5 -82.5v-164q0 -45 27 -71.5
t71 -26.5q45 0 72 26.5t27 71.5v160z" />
    <glyph glyph-name="epsilon" unicode="&#x3b5;" horiz-adv-x="422" 
d="M388 158v-21q0 -72 -45 -110t-130 -38q-80 0 -125 36.5t-45 100.5v20q0 37 18.5 64.5t53.5 41.5q-32 14 -49.5 39.5t-17.5 60.5v19q0 62 45.5 97.5t124.5 35.5q77 0 121.5 -39.5t44.5 -108.5v-20h-68v20q0 40 -27 63t-73 23q-47 0 -73 -20.5t-26 -57.5v-16
q0 -32 21.5 -49.5t59.5 -17.5h76v-60h-78q-40 0 -62.5 -19t-22.5 -53v-16q0 -39 27 -60t77 -21q51 0 78.5 22t27.5 63v21h67z" />
    <glyph glyph-name="zeta" unicode="&#x3b6;" horiz-adv-x="386" 
d="M334 34.5q31 -28.5 31 -80.5v-15q0 -52 -31 -80.5t-87 -28.5h-61v63h56q29 0 42.5 11.5t13.5 36.5v10q0 25 -13.5 37t-42.5 12h-34q-72 0 -114 42t-42 114v59q0 36 6 63t24 60.5t55 84.5l150 210h-233v63h310v-63l-178 -252q-39 -56 -52.5 -89.5t-13.5 -75.5v-50
q0 -49 26 -76t72 -27h29q56 0 87 -28.5z" />
    <glyph glyph-name="eta" unicode="&#x3b7;" horiz-adv-x="483" 
d="M381.5 463.5q39.5 -41.5 39.5 -114.5v-519h-70v508q0 50 -23 76t-67 26q-34 0 -61 -15t-42 -42v-383h-69v373q0 54 -49 54h-35v67h47q66 0 92 -44q21 27 53.5 41t73.5 14q71 0 110.5 -41.5z" />
    <glyph glyph-name="theta" unicode="&#x3b8;" 
d="M342 624q44 -43 44 -119v-356q0 -75 -44.5 -117.5t-118.5 -42.5q-76 0 -120 42.5t-44 117.5v356q0 76 44 119t120 43q75 0 119 -43zM153.5 575.5q-26.5 -27.5 -26.5 -74.5v-142h192v142q0 47 -27 74.5t-69 27.5q-43 0 -69.5 -27.5zM292 80.5q27 27.5 27 73.5v143h-192
v-143q0 -47 26.5 -74t69.5 -27q42 0 69 27.5z" />
    <glyph glyph-name="iota" unicode="&#x3b9;" horiz-adv-x="242" 
d="M99 26q-28 26 -28 87v381h68v-375q0 -30 11 -43t38 -13h49v-63h-55q-55 0 -83 26z" />
    <glyph glyph-name="kappa" unicode="&#x3ba;" 
d="M419 11v-11h-73l-137 230l-74 -92v-138h-69v494h69v-247l205 247h74v-11l-160 -199z" />
    <glyph glyph-name="lambda" unicode="&#x3bb;" horiz-adv-x="474" 
d="M445 11v-11h-68l-133 404l-137 -404h-68v11l171 492l-23 68q-12 36 -27.5 49t-48.5 13h-65v63h71q57 0 86 -22.5t49 -82.5z" />
    <glyph glyph-name="uni03BC" unicode="&#x3bc;" horiz-adv-x="484" 
d="M481 63v-63h-47q-66 0 -92 44q-18 -26 -47 -40.5t-63 -14.5q-67 0 -97 37v-196h-69v664h69v-339q0 -101 96 -101q31 0 57 15t40 41v384h69v-376q0 -55 50 -55h34z" />
    <glyph glyph-name="nu" unicode="&#x3bd;" 
d="M417 494v-11l-154 -483h-80l-154 483v11h67l127 -403l126 403h68z" />
    <glyph glyph-name="xi" unicode="&#x3be;" horiz-adv-x="430" 
d="M331 514v29q0 47 -25.5 73t-71.5 26t-72.5 -26t-26.5 -73v-73q0 -42 25.5 -65t71.5 -23h74v-62h-85q-47 0 -72.5 -26.5t-25.5 -75.5v-54q0 -101 102 -101h42q56 0 87 -28.5t31 -80.5v-15q0 -52 -31 -80.5t-87 -28.5h-65v63h60q29 0 42.5 11.5t13.5 36.5v10q0 49 -56 49
h-42q-76 0 -120.5 40.5t-44.5 110.5v62q0 106 88 137q-36 17 -56 48.5t-20 73.5v73q0 77 43.5 119.5t123.5 42.5q79 0 122 -42.5t43 -119.5v-31h-68z" />
    <glyph glyph-name="omicron" unicode="&#x3bf;" 
d="M101.5 30.5q-45.5 41.5 -45.5 118.5v194q0 78 45.5 120t121.5 42t121.5 -42t45.5 -120v-194q0 -77 -45.5 -118.5t-121.5 -41.5t-121.5 41.5zM294 80q27 26 27 72v188q0 48 -27 74t-71 26t-71 -26t-27 -74v-188q0 -46 27 -72t71 -26t71 26z" />
    <glyph glyph-name="pi" unicode="&#x3c0;" horiz-adv-x="539" 
d="M6 427v67h520v-67h-113v-304q0 -31 11.5 -45.5t37.5 -14.5h52v-63h-64q-52 0 -79 29.5t-27 86.5v311h-166v-427h-69v427h-103z" />
    <glyph glyph-name="rho" unicode="&#x3c1;" horiz-adv-x="451" 
d="M351.5 462q44.5 -43 44.5 -119v-194q0 -71 -42.5 -115.5t-110.5 -44.5q-70 0 -111 43v-202h-69v513q0 76 44 119t123 43q77 0 121.5 -43zM327 340q0 46 -26 73t-71 27q-46 0 -72 -27t-26 -73v-230q15 -26 41 -41t57 -15q44 0 70.5 27t26.5 72v187z" />
    <glyph glyph-name="uni03C2" unicode="&#x3c2;" horiz-adv-x="436" 
d="M267 -107q30 0 43.5 11.5t13.5 36.5v10q0 49 -57 49h-46q-76 0 -120.5 43t-44.5 117v183q0 75 44.5 118t122.5 43t123 -43t45 -118v-49h-69v46q0 46 -27 73t-72 27q-44 0 -71 -27t-27 -73v-174q0 -48 28.5 -75.5t78.5 -27.5h41q56 0 86.5 -28.5t30.5 -80.5v-15
q0 -52 -30.5 -80.5t-86.5 -28.5h-64v63h58z" />
    <glyph glyph-name="sigma" unicode="&#x3c3;" horiz-adv-x="456" 
d="M447 427h-99q43 -35 43 -104v-174q0 -74 -45 -117t-123 -43t-122.5 43t-44.5 117v188q0 76 44.5 116.5t129.5 40.5h217v-67zM276 427h-46q-52 0 -78.5 -25t-26.5 -74v-176q0 -44 27 -71t71 -27q46 0 72.5 27t26.5 71v178q0 66 -46 97z" />
    <glyph glyph-name="tau" unicode="&#x3c4;" horiz-adv-x="366" 
d="M155 34q-33 34 -33 96v297h-116v67h332v-67h-147v-290q0 -36 17.5 -55t49.5 -19h68v-63h-77q-61 0 -94 34z" />
    <glyph glyph-name="upsilon" unicode="&#x3c5;" horiz-adv-x="457" 
d="M106.5 30q-43.5 41 -43.5 117v347h69v-346q0 -46 25.5 -70.5t71.5 -24.5q45 0 70.5 25t25.5 70v346h69v-347q0 -75 -43 -116.5t-121 -41.5q-80 0 -123.5 41z" />
    <glyph glyph-name="phi" unicode="&#x3c6;" horiz-adv-x="614" 
d="M502.5 445q50.5 -49 50.5 -136v-125q0 -86 -50.5 -135t-140.5 -49h-20v-170h-68v170h-23q-89 0 -139.5 49t-50.5 135v125q0 87 50.5 136t140.5 49h22v194h68v-194h20q90 0 140.5 -49zM161 95.5q32 -32.5 90 -32.5h23v367h-23q-59 0 -90.5 -32t-31.5 -92v-119
q0 -59 32 -91.5zM486 306q0 60 -31.5 92t-91.5 32h-22v-367h22q59 0 91 32.5t32 91.5v119z" />
    <glyph glyph-name="chi" unicode="&#x3c7;" horiz-adv-x="434" 
d="M401 -159v-11h-67l-117 272l-115 -272h-69v11l141 324l-137 318v11h67l113 -266l113 266h66v-11l-137 -318z" />
    <glyph glyph-name="psi" unicode="&#x3c8;" horiz-adv-x="636" 
d="M574 493v-323q0 -83 -46 -126.5t-134 -43.5h-42v-170h-68v170h-42q-87 0 -133.5 44t-46.5 126v323h68v-320q0 -53 28.5 -81t83.5 -28h42v633h68v-633h42q112 0 112 109v320h68z" />
    <glyph glyph-name="omega" unicode="&#x3c9;" horiz-adv-x="664" 
d="M569 452q39 -42 39 -123v-180q0 -74 -42 -117t-115 -43q-83 0 -119 66q-36 -66 -119 -66q-73 0 -115 43t-42 117v180q0 81 39 123t113 42h16v-64h-14q-86 0 -86 -99v-177q0 -48 25 -74.5t69 -26.5q56 0 80 52v262h68v-263q23 -51 80 -51q44 0 69 26.5t25 74.5v177
q0 99 -86 99h-14v64h16q74 0 113 -42z" />
    <glyph glyph-name="iotadieresis" unicode="&#x3ca;" horiz-adv-x="242" 
d="M99 26q-28 26 -28 87v381h68v-375q0 -30 11 -43t38 -13h49v-63h-55q-55 0 -83 26zM-13.5 596.5q-12.5 12.5 -12.5 32.5t12.5 32.5t31.5 12.5q20 0 32.5 -12t12.5 -33t-12.5 -33t-32.5 -12q-19 0 -31.5 12.5zM159 596.5q-13 12.5 -13 32.5t13 32.5t32 12.5
q20 0 32.5 -12.5t12.5 -32.5t-12.5 -32.5t-32.5 -12.5q-19 0 -32 12.5z" />
    <glyph glyph-name="upsilondieresis" unicode="&#x3cb;" horiz-adv-x="457" 
d="M106.5 30q-43.5 41 -43.5 117v347h69v-346q0 -46 25.5 -70.5t71.5 -24.5q45 0 70.5 25t25.5 70v346h69v-347q0 -75 -43 -116.5t-121 -41.5q-80 0 -123.5 41zM111.5 596.5q-12.5 12.5 -12.5 32.5t12.5 32.5t31.5 12.5q20 0 32.5 -12t12.5 -33t-12.5 -33t-32.5 -12
q-19 0 -31.5 12.5zM284 596.5q-13 12.5 -13 32.5t13 32.5t32 12.5q20 0 32.5 -12.5t12.5 -32.5t-12.5 -32.5t-32.5 -12.5q-19 0 -32 12.5z" />
    <glyph glyph-name="omicrontonos" unicode="&#x3cc;" 
d="M101.5 30.5q-45.5 41.5 -45.5 118.5v194q0 78 45.5 120t121.5 42t121.5 -42t45.5 -120v-194q0 -77 -45.5 -118.5t-121.5 -41.5t-121.5 41.5zM294 80q27 26 27 72v188q0 48 -27 74t-71 26t-71 -26t-27 -74v-188q0 -46 27 -72t71 -26t71 26zM275 759l-20 -204h-65l20 204
h65z" />
    <glyph glyph-name="upsilontonos" unicode="&#x3cd;" horiz-adv-x="457" 
d="M106.5 30q-43.5 41 -43.5 117v347h69v-346q0 -46 25.5 -70.5t71.5 -24.5q45 0 70.5 25t25.5 70v346h69v-347q0 -75 -43 -116.5t-121 -41.5q-80 0 -123.5 41zM282 759l-20 -204h-65l20 204h65z" />
    <glyph glyph-name="omegatonos" unicode="&#x3ce;" horiz-adv-x="664" 
d="M569 452q39 -42 39 -123v-180q0 -74 -42 -117t-115 -43q-83 0 -119 66q-36 -66 -119 -66q-73 0 -115 43t-42 117v180q0 81 39 123t113 42h16v-64h-14q-86 0 -86 -99v-177q0 -48 25 -74.5t69 -26.5q56 0 80 52v262h68v-263q23 -51 80 -51q44 0 69 26.5t25 74.5v177
q0 99 -86 99h-14v64h16q74 0 113 -42zM384 759l-20 -204h-65l20 204h65z" />
    <glyph glyph-name="uni0400" unicode="&#x400;" horiz-adv-x="429" 
d="M398 656v-65h-258v-231h244v-65h-244v-230h258v-65h-329v656h329zM104 855l260 -66v-62l-260 66v62z" />
    <glyph glyph-name="uni0401" unicode="&#x401;" horiz-adv-x="429" 
d="M398 656v-65h-258v-231h244v-65h-244v-230h258v-65h-329v656h329zM115.5 758.5q-12.5 12.5 -12.5 32.5t12.5 32.5t31.5 12.5q20 0 32.5 -12t12.5 -33t-12.5 -33t-32.5 -12q-19 0 -31.5 12.5zM288 758.5q-13 12.5 -13 32.5t13 32.5t32 12.5q20 0 32.5 -12.5t12.5 -32.5
t-12.5 -32.5t-32.5 -12.5q-19 0 -32 12.5z" />
    <glyph glyph-name="uni0402" unicode="&#x402;" horiz-adv-x="585" 
d="M475.5 348q45.5 -41 45.5 -120v-66q0 -77 -44 -119.5t-125 -42.5h-36v65h34q48 0 74 26.5t26 73.5v55q0 51 -29 78t-82 27q-48 0 -110 -10v-315h-71v591h-148v65h409v-65h-190v-214q62 12 115 12q86 0 131.5 -41z" />
    <glyph glyph-name="uni0403" unicode="&#x403;" horiz-adv-x="396" 
d="M386 656v-65h-246v-591h-71v656h317zM363 855v-62l-260 -66v62z" />
    <glyph glyph-name="uni0404" unicode="&#x404;" horiz-adv-x="502" 
d="M376 439v33q0 61 -31.5 95.5t-87.5 34.5t-87.5 -33.5t-31.5 -92.5v-115h181v-65h-181v-117q0 -59 31.5 -92t87.5 -33q57 0 88 33.5t31 95.5v37h71v-37q0 -94 -49 -144t-141 -50q-88 0 -138.5 49t-50.5 136v307q0 86 50.5 136t138.5 50q90 0 140 -51t50 -144v-33h-71z" />
    <glyph glyph-name="uni0405" unicode="&#x405;" horiz-adv-x="458" 
d="M93 36.5q-47 47.5 -47 135.5v30h69v-30q0 -57 29 -87.5t83 -30.5q53 0 83.5 27.5t30.5 75.5v12q0 42 -22.5 71.5t-78.5 54.5l-49 22q-70 32 -102.5 72t-32.5 98v17q0 74 48 118.5t130 44.5t128 -45.5t46 -127.5v-30h-70v30q0 53 -26 81t-79 28q-50 0 -78 -25.5t-28 -71.5
v-11q0 -39 20.5 -66t72.5 -50l51 -22q74 -33 107.5 -75.5t33.5 -105.5v-17q0 -78 -49.5 -124t-135.5 -46q-87 0 -134 47.5z" />
    <glyph glyph-name="uni0406" unicode="&#x406;" horiz-adv-x="220" 
d="M146 656v-656h-72v656h72z" />
    <glyph glyph-name="uni0407" unicode="&#x407;" horiz-adv-x="220" 
d="M146 656v-656h-72v656h72zM-8.5 758.5q-12.5 12.5 -12.5 32.5t12.5 32.5t31.5 12.5q20 0 32.5 -12t12.5 -33t-12.5 -33t-32.5 -12q-19 0 -31.5 12.5zM164 758.5q-13 12.5 -13 32.5t13 32.5t32 12.5q20 0 32.5 -12.5t12.5 -32.5t-12.5 -32.5t-32.5 -12.5q-19 0 -32 12.5z
" />
    <glyph glyph-name="uni0408" unicode="&#x408;" horiz-adv-x="459" 
d="M89.5 35q-45.5 46 -45.5 129v87h71v-87q0 -53 26.5 -81.5t75.5 -28.5t76 28t27 78v431h-210v65h280v-502q0 -77 -46.5 -121t-126.5 -44q-82 0 -127.5 46z" />
    <glyph glyph-name="uni0409" unicode="&#x409;" horiz-adv-x="769" 
d="M688 339q46 -45 46 -133v-29q0 -87 -46 -132t-135 -45h-183v590h-185l-6 -411q-1 -91 -36 -135t-104 -44h-34v65h25q41 0 61 30t21 91l6 404h-1v66h324v-272h112q89 0 135 -45zM663 207q0 112 -115 112h-107v-254h107q115 0 115 113v29z" />
    <glyph glyph-name="uni040A" unicode="&#x40a;" horiz-adv-x="758" 
d="M140 656v-286h217v286h71v-286h114q90 0 135.5 -43t45.5 -127v-30q0 -83 -46 -126.5t-135 -43.5h-185v305h-217v-305h-71v656h71zM652 171v29q0 54 -28 79.5t-87 25.5h-109v-240h109q115 0 115 106z" />
    <glyph glyph-name="uni040B" unicode="&#x40b;" horiz-adv-x="579" 
d="M476.5 340.5q42.5 -42.5 42.5 -122.5v-218h-72v213q0 104 -108 104q-45 0 -111 -11v-306h-71v591h-147v65h409v-65h-191v-222q64 14 126 14q80 0 122.5 -42.5z" />
    <glyph glyph-name="uni040C" unicode="&#x40c;" horiz-adv-x="492" 
d="M451 11v-11h-73l-153 295h-85v-295h-71v656h71v-296h84l152 296h72v-11l-163 -316zM375 855v-62l-260 -66v62z" />
    <glyph glyph-name="uni040D" unicode="&#x40d;" horiz-adv-x="504" 
d="M139 656v-506l224 506h72v-656h-70v507l-223 -507h-73v656h70zM123 855l260 -66v-62l-260 66v62z" />
    <glyph glyph-name="uni040E" unicode="&#x40e;" horiz-adv-x="459" 
d="M448 656v-11l-182 -542q-19 -57 -48.5 -80t-83.5 -23h-61v65h56q29 0 44.5 13t28.5 48l4 12l-175 507v11h70l141 -425l138 425h68zM140.5 759q-35.5 28 -35.5 75v11h61v-11q0 -20 19 -32.5t50 -12.5t50 12.5t19 32.5v11h61v-11q0 -47 -35.5 -75t-94.5 -28t-94.5 28z" />
    <glyph glyph-name="uni040F" unicode="&#x40f;" horiz-adv-x="500" 
d="M431 0h-146v-133h-70v133h-146v656h71v-590h220v590h71v-656z" />
    <glyph glyph-name="uni0410" unicode="&#x410;" horiz-adv-x="499" 
d="M465 11v-11h-72l-42 163h-202l-42 -163h-72v11l174 645h83zM334 228l-84 327l-84 -327h168z" />
    <glyph glyph-name="uni0411" unicode="&#x411;" horiz-adv-x="491" 
d="M406 656v-65h-266v-215h126q88 0 134.5 -44.5t46.5 -128.5v-31q0 -84 -46.5 -128t-134.5 -44h-197v656h337zM376 172v31q0 108 -115 108h-121v-246h121q115 0 115 107z" />
    <glyph glyph-name="uni0412" unicode="&#x412;" horiz-adv-x="483" 
d="M412 278.5q25 -39.5 25 -94.5v-20q0 -76 -47 -120t-130 -44h-191v656h180q84 0 130.5 -41.5t46.5 -117.5v-20q0 -52 -22 -88t-63 -54q46 -17 71 -56.5zM140 591v-226h103q54 0 83 27.5t29 78.5v18q0 102 -114 102h-101zM365 191q0 52 -29.5 81t-82.5 29h-113v-236h112
q55 0 84 27.5t29 79.5v19z" />
    <glyph glyph-name="uni0413" unicode="&#x413;" horiz-adv-x="396" 
d="M386 656v-65h-246v-591h-71v656h317z" />
    <glyph glyph-name="uni0414" unicode="&#x414;" horiz-adv-x="553" 
d="M520 65v-198h-71v133h-358v-133h-72v198h56q44 78 45 214l5 377h330v-591h65zM145 65h239v525h-193l-5 -317q-1 -127 -41 -208z" />
    <glyph glyph-name="uni0415" unicode="&#x415;" horiz-adv-x="429" 
d="M398 656v-65h-258v-231h244v-65h-244v-230h258v-65h-329v656h329z" />
    <glyph glyph-name="uni0416" unicode="&#x416;" horiz-adv-x="744" 
d="M703 11v-11h-73l-138 295h-84v-295h-72v295h-84l-138 -295h-73v11l149 318l-146 316v11h72l136 -296h84v296h72v-296h84l136 296h72v-11l-146 -317z" />
    <glyph glyph-name="uni0417" unicode="&#x417;" horiz-adv-x="487" 
d="M412 278.5q22 -34.5 22 -82.5v-39q0 -76 -51.5 -122t-136.5 -46q-92 0 -141 50t-49 143v37h71v-37q0 -128 120 -128q53 0 84.5 30t31.5 80v31q0 49 -28 75t-81 26h-57v65h59q46 0 72 26.5t26 72.5v31q0 51 -29.5 81t-80.5 30q-56 0 -85.5 -33t-29.5 -94v-37h-71v37
q0 92 48.5 142t137.5 50q82 0 131.5 -46.5t49.5 -122.5v-39q0 -44 -20 -77.5t-56 -51.5q41 -17 63 -51.5z" />
    <glyph glyph-name="uni0418" unicode="&#x418;" horiz-adv-x="504" 
d="M139 656v-506l224 506h72v-656h-70v507l-223 -507h-73v656h70z" />
    <glyph glyph-name="uni0419" unicode="&#x419;" horiz-adv-x="504" 
d="M139 656v-506l224 506h72v-656h-70v507l-223 -507h-73v656h70zM158.5 759q-35.5 28 -35.5 75v11h61v-11q0 -20 19 -32.5t50 -12.5t50 12.5t19 32.5v11h61v-11q0 -47 -35.5 -75t-94.5 -28t-94.5 28z" />
    <glyph glyph-name="uni041A" unicode="&#x41a;" horiz-adv-x="492" 
d="M451 11v-11h-73l-153 295h-85v-295h-71v656h71v-296h84l152 296h72v-11l-163 -316z" />
    <glyph glyph-name="uni041B" unicode="&#x41b;" horiz-adv-x="515" 
d="M446 0h-71v590h-190l-6 -411q-1 -91 -36 -135t-104 -44h-34v65h25q41 0 61 30t21 91l6 404h-1v66h329v-656z" />
    <glyph glyph-name="uni041C" unicode="&#x41c;" horiz-adv-x="629" 
d="M560 0h-69v518l-150 -518h-52l-151 519v-519h-69v656h92l153 -515l154 515h92v-656z" />
    <glyph glyph-name="uni041D" unicode="&#x41d;" horiz-adv-x="499" 
d="M140 656v-296h219v296h71v-656h-71v295h-219v-295h-71v656h71z" />
    <glyph glyph-name="uni041E" unicode="&#x41e;" horiz-adv-x="512" 
d="M118 38.5q-50 49.5 -50 135.5v307q0 87 50.5 136.5t137.5 49.5q88 0 138 -50t50 -136v-307q0 -86 -50 -135.5t-138 -49.5t-138 49.5zM342 87q31 33 31 92v297q0 60 -30.5 93t-86.5 33t-86.5 -33t-30.5 -93v-297q0 -59 31 -92t86 -33t86 33z" />
    <glyph glyph-name="uni041F" unicode="&#x41f;" horiz-adv-x="504" 
d="M435 656v-656h-71v590h-224v-590h-71v656h366z" />
    <glyph glyph-name="uni0420" unicode="&#x420;" horiz-adv-x="482" 
d="M266 656q88 0 134.5 -44.5t46.5 -129.5v-20q0 -86 -46.5 -130.5t-134.5 -44.5h-126v-287h-71v656h197zM376 462v20q0 53 -29 81t-86 28h-121v-239h121q115 0 115 110z" />
    <glyph glyph-name="uni0421" unicode="&#x421;" horiz-adv-x="502" 
d="M118 38q-50 49 -50 136v307q0 87 50.5 136.5t138.5 49.5q93 0 141.5 -51t48.5 -149v-60h-72v60q0 67 -30 101t-88 34q-57 0 -87.5 -33t-30.5 -93v-297q0 -60 30.5 -92.5t87.5 -32.5q58 0 88 33.5t30 97.5v63h72v-63q0 -96 -49 -146t-141 -50q-89 0 -139 49z" />
    <glyph glyph-name="uni0422" unicode="&#x422;" horiz-adv-x="404" 
d="M10 591v65h384v-65h-156v-591h-72v591h-156z" />
    <glyph glyph-name="uni0423" unicode="&#x423;" horiz-adv-x="459" 
d="M448 656v-11l-182 -542q-19 -57 -48.5 -80t-83.5 -23h-61v65h56q29 0 44.5 13t28.5 48l4 12l-175 507v11h70l141 -425l138 425h68z" />
    <glyph glyph-name="uni0424" unicode="&#x424;" horiz-adv-x="628" 
d="M538.5 544q54.5 -54 54.5 -159v-115q0 -104 -54.5 -158t-160.5 -54h-28v-69h-72v69h-28q-106 0 -160.5 54t-54.5 158v115q0 105 54.5 159t160.5 54h28v69h72v-69h28q106 0 160.5 -54zM250 124h30v409h-30q-146 0 -146 -151v-110q0 -148 146 -148zM524 382q0 151 -146 151
h-30v-409h30q146 0 146 148v110z" />
    <glyph glyph-name="uni0425" unicode="&#x425;" horiz-adv-x="496" 
d="M455 11v-11h-72l-135 273l-136 -273h-71v11l161 319l-160 315v11h72l134 -269l133 269h72v-11l-158 -315z" />
    <glyph glyph-name="uni0426" unicode="&#x426;" horiz-adv-x="531" 
d="M498 65v-198h-71v133h-358v656h71v-591h222v591h71v-591h65z" />
    <glyph glyph-name="uni0427" unicode="&#x427;" horiz-adv-x="490" 
d="M421 656v-656h-71v272q-61 -14 -116 -14q-85 0 -129.5 42.5t-44.5 123.5v232h72v-228q0 -51 28.5 -77.5t84.5 -26.5q43 0 105 12v320h71z" />
    <glyph glyph-name="uni0428" unicode="&#x428;" horiz-adv-x="772" 
d="M140 656v-590h210v590h72v-590h210v590h71v-656h-634v656h71z" />
    <glyph glyph-name="uni0429" unicode="&#x429;" horiz-adv-x="805" 
d="M772 65v-198h-71v133h-632v656h71v-590h212v590h71v-590h213v590h71v-591h65z" />
    <glyph glyph-name="uni042A" unicode="&#x42a;" horiz-adv-x="571" 
d="M490 339q46 -45 46 -133v-29q0 -87 -46 -132t-135 -45h-197v591h-148v65h219v-272h126q89 0 135 -45zM465 207q0 112 -115 112h-121v-254h121q115 0 115 113v29z" />
    <glyph glyph-name="uni042B" unicode="&#x42b;" horiz-adv-x="670" 
d="M143 656v-272h124q89 0 135 -45t46 -133v-29q0 -87 -46 -132t-135 -45h-195v656h71zM598 656v-656h-71v656h71zM377 178v29q0 112 -115 112h-119v-254h119q115 0 115 113z" />
    <glyph glyph-name="uni042C" unicode="&#x42c;" horiz-adv-x="482" 
d="M140 656v-272h126q89 0 135 -45t46 -133v-29q0 -87 -46 -132t-135 -45h-197v656h71zM376 178v29q0 112 -115 112h-121v-254h121q115 0 115 113z" />
    <glyph glyph-name="uni042D" unicode="&#x42d;" horiz-adv-x="502" 
d="M383.5 617q50.5 -50 50.5 -136v-307q0 -87 -50.5 -136t-138.5 -49q-92 0 -141 50t-49 144v37h71v-37q0 -62 31 -95.5t88 -33.5q56 0 87.5 33t31.5 92v117h-181v65h181v115q0 59 -31.5 92.5t-87.5 33.5t-87.5 -34.5t-31.5 -95.5v-33h-71v33q0 93 50 144t140 51
q88 0 138.5 -50z" />
    <glyph glyph-name="uni042E" unicode="&#x42e;" horiz-adv-x="721" 
d="M602 618q51 -50 51 -135v-312q0 -85 -50.5 -133.5t-138.5 -48.5q-86 0 -135 48.5t-49 133.5v124h-140v-295h-71v656h71v-295h140v122q0 86 49 135t135 49q87 1 138 -49zM582 479q0 58 -30.5 90.5t-85.5 32.5q-54 0 -84.5 -32.5t-30.5 -90.5v-304q0 -57 30 -89t85 -32
t85.5 32t30.5 89v304z" />
    <glyph glyph-name="uni042F" unicode="&#x42f;" horiz-adv-x="486" 
d="M417 656v-656h-71v274h-68l-166 -274h-71v11l158 264q-79 6 -119.5 51.5t-40.5 127.5v20q0 89 47.5 135.5t137.5 46.5h193zM346 591h-116q-120 0 -120 -117v-20q0 -115 120 -115h116v252z" />
    <glyph glyph-name="uni0430" unicode="&#x430;" horiz-adv-x="462" 
d="M457 63v-63h-45q-69 0 -93 47q-43 -58 -129 -58q-66 0 -104.5 36.5t-38.5 100.5q0 62 38 97.5t118 48.5l104 17v53q0 98 -93 98q-47 0 -72 -25.5t-25 -73.5v-10h-68v10q0 79 42 121.5t121 42.5q80 0 121.5 -42t41.5 -124v-221q0 -55 50 -55h32zM263 68.5q30 19.5 44 51.5
v113l-89 -15q-53 -9 -78.5 -31.5t-25.5 -59.5q0 -36 22 -57t60 -21q37 0 67 19.5z" />
    <glyph glyph-name="uni0431" unicode="&#x431;" horiz-adv-x="451" 
d="M354 427q43 -44 43 -115v-163q0 -74 -44.5 -117t-121.5 -43q-81 0 -124.5 46t-43.5 133v246q0 76 15.5 122t50.5 71.5t96 35.5l58 11q20 4 27.5 9.5t7.5 18.5v14h63v-19q0 -37 -18.5 -55.5t-64.5 -26.5l-56 -10q-64 -11 -91.5 -42t-27.5 -93v-33q21 26 51.5 40t66.5 14
q70 0 113 -44zM329 304q0 46 -27.5 74t-73.5 28q-31 0 -56 -14t-40 -40v-183q0 -55 25.5 -85t72.5 -30q45 0 72 27t27 71v152z" />
    <glyph glyph-name="uni0432" unicode="&#x432;" horiz-adv-x="455" 
d="M391.5 212.5q20.5 -27.5 20.5 -67.5v-20q0 -61 -37 -93t-107 -32h-202v494h190q71 0 107.5 -31t36.5 -91v-20q0 -73 -68 -100q39 -12 59.5 -39.5zM135 435v-155h109q41 0 63.5 18t22.5 51v16q0 34 -22 52t-64 18h-109zM342 149q0 34 -23 53.5t-63 19.5h-121v-163h121
q41 0 63.5 19.5t22.5 54.5v16z" />
    <glyph glyph-name="uni0433" unicode="&#x433;" horiz-adv-x="330" 
d="M320 494v-64h-185v-430h-69v494h254z" />
    <glyph glyph-name="uni0434" unicode="&#x434;" horiz-adv-x="516" 
d="M490 63v-191h-70v128h-321v-128h-68v191h52q42 64 43 171l3 260h296v-431h65zM356 63v367h-164l-2 -200q-1 -104 -38 -167h204z" />
    <glyph glyph-name="uni0435" unicode="&#x435;" 
d="M124 224v-76q0 -44 27 -69.5t72 -25.5q46 0 72.5 26.5t26.5 75.5h68q-1 -80 -45.5 -123t-121.5 -43q-78 0 -122.5 42.5t-44.5 117.5v194q0 76 44.5 119t122.5 43t122.5 -43t44.5 -119v-119h-266zM151.5 414q-27.5 -26 -27.5 -70v-62h198v62q0 45 -27 70.5t-72 25.5
q-44 0 -71.5 -26z" />
    <glyph glyph-name="uni0436" unicode="&#x436;" horiz-adv-x="684" 
d="M650 11v-11h-74l-131 215h-69v-215h-68v215h-69l-132 -215h-73v11l144 236l-139 236v11h72l129 -216h68v216h68v-216h69l128 216h72v-11l-139 -236z" />
    <glyph glyph-name="uni0437" unicode="&#x437;" horiz-adv-x="422" 
d="M360.5 210.5q18.5 -27.5 18.5 -64.5v-20q0 -64 -45 -100.5t-125 -36.5q-85 0 -130 39.5t-45 112.5v20h67v-20q0 -43 27.5 -66t78.5 -23q50 0 77 21t27 60v16q0 34 -22 53t-63 19h-78v60h76q38 0 59.5 17.5t21.5 49.5v16q0 37 -26 57.5t-73 20.5t-73.5 -24t-26.5 -66v-21
h-68v21q0 71 44.5 111.5t121.5 40.5q79 0 124.5 -35.5t45.5 -97.5v-20q0 -35 -17 -60t-50 -39q35 -14 53.5 -41.5z" />
    <glyph glyph-name="uni0438" unicode="&#x438;" horiz-adv-x="461" 
d="M132 494v-369l198 369h65v-494h-66v368l-199 -368h-64v494h66z" />
    <glyph glyph-name="uni0439" unicode="&#x439;" horiz-adv-x="461" 
d="M132 494v-369l198 369h65v-494h-66v368l-199 -368h-64v494h66zM135.5 597q-35.5 28 -35.5 75v11h61v-11q0 -20 19 -32.5t50 -12.5t50 12.5t19 32.5v11h61v-11q0 -47 -35.5 -75t-94.5 -28t-94.5 28z" />
    <glyph glyph-name="uni043A" unicode="&#x43a;" horiz-adv-x="453" 
d="M419 11v-11h-73l-141 215h-70v-215h-69v494h69v-216h70l137 216h72v-11l-148 -236z" />
    <glyph glyph-name="uni043B" unicode="&#x43b;" horiz-adv-x="464" 
d="M398 0h-69v430h-161l-5 -282q-2 -77 -30.5 -112.5t-90.5 -35.5h-25v63h17q31 0 46.5 22t16.5 68l5 341h296v-494z" />
    <glyph glyph-name="uni043C" unicode="&#x43c;" horiz-adv-x="588" 
d="M522 494v-494h-65v399l-8 -31l-123 -368h-64l-124 368l-8 31v-399h-64v494h93l135 -408l135 408h93z" />
    <glyph glyph-name="uni043D" unicode="&#x43d;" horiz-adv-x="467" 
d="M135 494v-215h197v215h69v-494h-69v215h-197v-215h-69v494h69z" />
    <glyph glyph-name="uni043E" unicode="&#x43e;" 
d="M101.5 30.5q-45.5 41.5 -45.5 118.5v194q0 78 45.5 120t121.5 42t121.5 -42t45.5 -120v-194q0 -77 -45.5 -118.5t-121.5 -41.5t-121.5 41.5zM294 80q27 26 27 72v188q0 48 -27 74t-71 26t-71 -26t-27 -74v-188q0 -46 27 -72t71 -26t71 26z" />
    <glyph glyph-name="uni043F" unicode="&#x43f;" horiz-adv-x="467" 
d="M401 494v-494h-69v431h-197v-431h-69v494h335z" />
    <glyph glyph-name="uni0440" unicode="&#x440;" horiz-adv-x="454" 
d="M357 464q42 -41 42 -111v-213q0 -70 -42 -110.5t-111 -40.5q-68 0 -111 41v-200h-69v664h60l4 -41q20 25 50 38.5t67 13.5q68 0 110 -41zM330 338q0 47 -26.5 74.5t-71.5 27.5q-30 0 -56 -15.5t-41 -42.5v-271q16 -26 41.5 -41.5t55.5 -15.5q45 0 71.5 27.5t26.5 74.5
v182z" />
    <glyph glyph-name="uni0441" unicode="&#x441;" horiz-adv-x="442" 
d="M100.5 31.5q-44.5 42.5 -44.5 117.5v194q0 76 44 119t123 43q78 0 122 -43t44 -119v-39h-69v36q0 46 -26 73t-71 27t-71.5 -27t-26.5 -73v-188q0 -44 27 -71t71 -27q45 0 71 26.5t26 71.5v35h69v-38q0 -74 -44 -117t-122 -43t-122.5 42.5z" />
    <glyph glyph-name="uni0442" unicode="&#x442;" horiz-adv-x="387" 
d="M10 431v63h367v-63h-149v-431h-68v431h-150z" />
    <glyph glyph-name="uni0443" unicode="&#x443;" horiz-adv-x="464" 
d="M435 494v-11l-185 -550q-19 -58 -49 -80.5t-86 -22.5h-49v64h43q33 0 48.5 12t26.5 48l15 49l-170 480v11h72l134 -395l128 395h72z" />
    <glyph glyph-name="uni0444" unicode="&#x444;" horiz-adv-x="614" 
d="M502.5 445q50.5 -49 50.5 -136v-125q0 -86 -50.5 -135t-140.5 -49h-20v-170h-68v170h-23q-89 0 -139.5 49t-50.5 135v125q0 87 50.5 136t140.5 49h22v194h68v-194h20q90 0 140.5 -49zM161 95.5q32 -32.5 90 -32.5h23v367h-23q-59 0 -90.5 -32t-31.5 -92v-119
q0 -59 32 -91.5zM486 306q0 60 -31.5 92t-91.5 32h-22v-367h22q59 0 91 32.5t32 91.5v119z" />
    <glyph glyph-name="uni0445" unicode="&#x445;" horiz-adv-x="436" 
d="M402 11v-11h-71l-113 192l-113 -192h-71v11l142 238l-138 234v11h71l110 -188l109 188h71v-11l-138 -234z" />
    <glyph glyph-name="uni0446" unicode="&#x446;" horiz-adv-x="494" 
d="M468 63v-191h-69v128h-333v494h69v-431h199v431h69v-431h65z" />
    <glyph glyph-name="uni0447" unicode="&#x447;" horiz-adv-x="450" 
d="M384 494v-494h-69v175q-55 -11 -100 -11q-76 0 -119 35.5t-43 99.5v195h68v-181q0 -41 27 -64t75 -23q35 0 92 11v257h69z" />
    <glyph glyph-name="uni0448" unicode="&#x448;" horiz-adv-x="704" 
d="M135 494v-431h182v431h69v-431h183v431h69v-494h-572v494h69z" />
    <glyph glyph-name="uni0449" unicode="&#x449;" horiz-adv-x="735" 
d="M703 63v-191h-69v128h-568v494h69v-431h182v431h69v-431h183v431h69v-431h65z" />
    <glyph glyph-name="uni044A" unicode="&#x44a;" horiz-adv-x="526" 
d="M451 282q43 -40 43 -114v-15q0 -73 -43.5 -113t-122.5 -40h-176v431h-142v63h211v-172h107q80 0 123 -40zM426 168q0 44 -26.5 68t-77.5 24h-101v-198h101q51 0 77.5 23.5t26.5 67.5v15z" />
    <glyph glyph-name="uni044B" unicode="&#x44b;" horiz-adv-x="611" 
d="M365 281.5q43 -40.5 43 -113.5v-15q0 -72 -43 -112.5t-123 -40.5h-174v494h69v-172h105q80 0 123 -40.5zM543 494v-494h-70v494h70zM340 168q0 44 -26.5 68t-77.5 24h-99v-198h99q51 0 77.5 23.5t26.5 67.5v15z" />
    <glyph glyph-name="uni044C" unicode="&#x44c;" horiz-adv-x="440" 
d="M365 282q43 -40 43 -114v-15q0 -73 -43.5 -113t-122.5 -40h-176v494h69v-172h107q80 0 123 -40zM340 168q0 44 -26.5 68t-77.5 24h-101v-198h101q51 0 77.5 23.5t26.5 67.5v15z" />
    <glyph glyph-name="uni044D" unicode="&#x44d;" 
d="M342.5 462q44.5 -43 44.5 -119v-194q0 -75 -44.5 -117.5t-123.5 -42.5q-77 0 -121.5 43t-44.5 117v15h66v-16q0 -45 27.5 -71.5t73.5 -26.5t73.5 26.5t27.5 71.5v69h-153v60h153v68q0 45 -27.5 72t-73.5 27q-47 0 -74 -26.5t-27 -72.5v-16h-66v15q0 75 44.5 118t121.5 43
q79 0 123.5 -43z" />
    <glyph glyph-name="uni044E" unicode="&#x44e;" horiz-adv-x="620" 
d="M520 462q44 -43 44 -119v-194q0 -74 -44 -117t-121 -43q-75 0 -118 42.5t-43 117.5v66h-103v-215h-69v494h69v-215h103v64q0 76 43 119t118 43q77 0 121 -43zM496 340q0 46 -26 73t-69 27t-69 -27t-26 -73v-188q0 -44 26 -71t69 -27t69 26.5t26 71.5v188z" />
    <glyph glyph-name="uni044F" unicode="&#x44f;" horiz-adv-x="457" 
d="M391 0h-69v185h-69l-138 -185h-73v10l134 178q-62 9 -96.5 45.5t-34.5 94.5v20q0 68 45.5 107t125.5 39h175v-494zM322 244v188h-100q-50 0 -79 -22.5t-29 -61.5v-19q0 -40 29 -62.5t79 -22.5h100z" />
    <glyph glyph-name="uni0450" unicode="&#x450;" 
d="M124 224v-76q0 -44 27 -69.5t72 -25.5q46 0 72.5 26.5t26.5 75.5h68q-1 -80 -45.5 -123t-121.5 -43q-78 0 -122.5 42.5t-44.5 117.5v194q0 76 44.5 119t122.5 43t122.5 -43t44.5 -119v-119h-266zM151.5 414q-27.5 -26 -27.5 -70v-62h198v62q0 45 -27 70.5t-72 25.5
q-44 0 -71.5 -26zM93 693l260 -66v-62l-260 66v62z" />
    <glyph glyph-name="uni0451" unicode="&#x451;" 
d="M124 224v-76q0 -44 27 -69.5t72 -25.5q46 0 72.5 26.5t26.5 75.5h68q-1 -80 -45.5 -123t-121.5 -43q-78 0 -122.5 42.5t-44.5 117.5v194q0 76 44.5 119t122.5 43t122.5 -43t44.5 -119v-119h-266zM151.5 414q-27.5 -26 -27.5 -70v-62h198v62q0 45 -27 70.5t-72 25.5
q-44 0 -71.5 -26zM104.5 596.5q-12.5 12.5 -12.5 32.5t12.5 32.5t31.5 12.5q20 0 32.5 -12t12.5 -33t-12.5 -33t-32.5 -12q-19 0 -31.5 12.5zM277 596.5q-13 12.5 -13 32.5t13 32.5t32 12.5q20 0 32.5 -12.5t12.5 -32.5t-12.5 -32.5t-32.5 -12.5q-19 0 -32 12.5z" />
    <glyph glyph-name="uni0452" unicode="&#x452;" horiz-adv-x="469" 
d="M368 456.5q39 -40.5 39 -114.5v-354q0 -77 -37.5 -117.5t-110.5 -40.5h-43v64h36q42 0 64 25t22 72v339q0 102 -95 102q-30 0 -56 -15.5t-42 -41.5v-375h-69v581h-68v60h68v55h69v-55h128v-60h-128v-132q21 23 50.5 35.5t62.5 12.5q71 0 110 -40.5z" />
    <glyph glyph-name="uni0453" unicode="&#x453;" horiz-adv-x="330" 
d="M320 494v-64h-185v-430h-69v494h254zM318 693v-62l-260 -66v62z" />
    <glyph glyph-name="uni0454" unicode="&#x454;" 
d="M324 329v16q0 46 -27 72.5t-74 26.5q-46 0 -73.5 -27t-27.5 -72v-68h153v-60h-153v-69q0 -45 27.5 -71.5t73.5 -26.5t73.5 26.5t27.5 71.5v16h67v-16q0 -74 -45 -116.5t-122 -42.5q-79 0 -123.5 42.5t-44.5 117.5v194q0 76 44.5 119t123.5 43q78 0 122.5 -43t44.5 -117
v-16h-67z" />
    <glyph glyph-name="uni0455" unicode="&#x455;" horiz-adv-x="427" 
d="M93.5 27q-42.5 38 -42.5 107v19h68v-19q0 -39 25.5 -61t69.5 -22q42 0 67.5 20t25.5 53v9q0 32 -19 50.5t-63 31.5l-48 14q-116 33 -116 132v13q0 60 42 95.5t114 35.5q74 0 116 -38t42 -105v-19h-68v19q0 37 -25 59t-66 22q-40 0 -63.5 -18.5t-23.5 -49.5v-9
q0 -30 16.5 -48.5t53.5 -28.5l55 -15q64 -17 93 -49.5t29 -87.5v-14q0 -62 -43.5 -98t-118.5 -36q-78 0 -120.5 38z" />
    <glyph glyph-name="uni0456" unicode="&#x456;" horiz-adv-x="210" 
d="M139 494v-494h-68v494h68zM69.5 593q-14.5 14 -14.5 36t14.5 36t35.5 14q22 0 36 -13.5t14 -36.5q0 -22 -14 -36t-36 -14q-21 0 -35.5 14z" />
    <glyph glyph-name="uni0457" unicode="&#x457;" horiz-adv-x="234" 
d="M27.5 595.5q-10.5 12.5 -10.5 33.5t11 33t28 12t28 -12t11 -33t-10.5 -33.5t-28.5 -12.5t-28.5 12.5zM149.5 595.5q-10.5 12.5 -10.5 33.5t11 33t28 12t28 -12t11 -33t-10.5 -33.5t-28.5 -12.5t-28.5 12.5zM151 494v-494h-68v494h68z" />
    <glyph glyph-name="uni0458" unicode="&#x458;" horiz-adv-x="210" 
d="M-1 -106q35 0 53.5 19t18.5 54v527h68v-532q0 -61 -35 -96.5t-96 -35.5h-62v64h53zM69.5 593q-14.5 14 -14.5 36t14.5 36t35.5 14q22 0 36 -13.5t14 -36.5q0 -22 -14 -36t-36 -14q-21 0 -35.5 14z" />
    <glyph glyph-name="uni0459" unicode="&#x459;" horiz-adv-x="686" 
d="M611 282q43 -40 43 -114v-15q0 -73 -43.5 -113t-122.5 -40h-168v430h-152l-5 -282q-2 -77 -30.5 -112.5t-90.5 -35.5h-25v63h17q31 0 46.5 22t16.5 68l5 341h287v-172h99q80 0 123 -40zM586 168q0 44 -26.5 68t-77.5 24h-93v-198h93q51 0 77.5 23.5t26.5 67.5v15z" />
    <glyph glyph-name="uni045A" unicode="&#x45a;" horiz-adv-x="689" 
d="M135 494v-207h193v207h68v-203h95q81 0 123.5 -35.5t42.5 -102.5v-14q0 -67 -43 -103t-123 -36h-163v222h-193v-222h-69v494h69zM589 139v14q0 78 -104 78h-89v-171h89q104 0 104 79z" />
    <glyph glyph-name="uni045B" unicode="&#x45b;" horiz-adv-x="469" 
d="M367.5 457q39.5 -40 39.5 -115v-342h-69v330q0 102 -95 102q-30 0 -56 -15.5t-42 -42.5v-374h-69v581h-68v60h68v55h69v-55h128v-60h-128v-132q21 23 50.5 35.5t62.5 12.5q70 0 109.5 -40z" />
    <glyph glyph-name="uni045C" unicode="&#x45c;" horiz-adv-x="453" 
d="M419 11v-11h-73l-141 215h-70v-215h-69v494h69v-216h70l137 216h72v-11l-148 -236zM356 693v-62l-260 -66v62z" />
    <glyph glyph-name="uni045D" unicode="&#x45d;" horiz-adv-x="461" 
d="M132 494v-369l198 369h65v-494h-66v368l-199 -368h-64v494h66zM100 693l260 -66v-62l-260 66v62z" />
    <glyph glyph-name="uni045E" unicode="&#x45e;" horiz-adv-x="464" 
d="M435 494v-11l-185 -550q-19 -58 -49 -80.5t-86 -22.5h-49v64h43q33 0 48.5 12t26.5 48l15 49l-170 480v11h72l134 -395l128 395h72zM137.5 597q-35.5 28 -35.5 75v11h61v-11q0 -20 19 -32.5t50 -12.5t50 12.5t19 32.5v11h61v-11q0 -47 -35.5 -75t-94.5 -28t-94.5 28z" />
    <glyph glyph-name="uni045F" unicode="&#x45f;" horiz-adv-x="469" 
d="M403 0h-137v-128h-62v128h-138v494h69v-431h199v431h69v-494z" />
    <glyph glyph-name="uni0462" unicode="&#x462;" horiz-adv-x="535" 
d="M511 187v-20q0 -83 -45.5 -125t-135.5 -42h-197v505h-125v63h125v93h71v-93h184v-63h-184v-151h126q181 0 181 -167zM440 187q0 53 -28.5 78.5t-86.5 25.5h-121v-227h121q115 0 115 103v20z" />
    <glyph glyph-name="uni0463" unicode="&#x463;" horiz-adv-x="526" 
d="M440.5 268q43.5 -39 43.5 -108v-14q0 -70 -42.5 -108t-123.5 -38h-176v432h-132v62h132v202h69v-202h167v-62h-167v-125h107q79 0 122.5 -39zM418 160q0 42 -27 65t-77 23h-103v-189h103q52 0 78 22.5t26 64.5v14z" />
    <glyph glyph-name="uni0472" unicode="&#x472;" horiz-adv-x="512" 
d="M393 616.5q51 -50.5 51 -135.5v-307q0 -86 -50.5 -135.5t-137.5 -49.5t-137.5 49.5t-50.5 135.5v307q0 86 51 136t137 50t137 -50.5zM169 568.5q-32 -33.5 -32 -92.5v-115q35 7 58 7q26 0 59 -7q4 -1 23.5 -4t40.5 -3q33 0 58 6v116q0 59 -32 92.5t-88 33.5
q-55 0 -87 -33.5zM344 87q32 33 32 92v118q-33 -8 -62 -8q-22 0 -41.5 3t-24.5 4q-32 7 -57 7t-54 -6v-118q0 -59 31.5 -92t87.5 -33t88 33z" />
    <glyph glyph-name="uni0473" unicode="&#x473;" 
d="M346 462q44 -43 44 -119v-194q0 -75 -44 -117.5t-123 -42.5q-78 0 -122.5 42.5t-44.5 117.5v194q0 76 44 119t123 43t123 -43zM149.5 415q-27.5 -28 -27.5 -75v-64q24 6 49 6q22 0 56 -6q32 -6 51 -6q27 0 46 5v65q0 48 -26.5 75.5t-73.5 27.5t-74.5 -28zM297 78.5
q27 27.5 27 73.5v65q-21 -5 -49 -5q-20 0 -54 6q-40 5 -54 5q-21 0 -45 -6v-65q0 -46 27.5 -73.5t74.5 -27.5q46 0 73 27.5z" />
    <glyph glyph-name="uni0474" unicode="&#x474;" horiz-adv-x="513" 
d="M503 656v-65h-31q-20 0 -31.5 -11t-17.5 -36l-136 -544h-83l-169 645v11h74l136 -541l107 445q12 53 34.5 74.5t69.5 21.5h47z" />
    <glyph glyph-name="uni0475" unicode="&#x475;" horiz-adv-x="458" 
d="M448 494v-63h-22q-16 0 -25 -8t-16 -28l-124 -395h-81l-151 483v11h70l122 -405l101 333q12 39 32 55.5t61 16.5h33z" />
    <glyph glyph-name="uni0490" unicode="&#x490;" horiz-adv-x="386" 
d="M295 656v133h71v-198h-226v-591h-71v656h226z" />
    <glyph glyph-name="uni0491" unicode="&#x491;" horiz-adv-x="330" 
d="M234 494v127h69v-191h-168v-430h-69v494h168z" />
    <glyph glyph-name="uni0492" unicode="&#x492;" horiz-adv-x="419" 
d="M153 591v-245h166v-64h-166v-282h-71v282h-68v64h68v310h327v-65h-256z" />
    <glyph glyph-name="uni0493" unicode="&#x493;" horiz-adv-x="370" 
d="M150 430v-188h125v-59h-125v-183h-68v183h-68v59h68v252h265v-64h-197z" />
    <glyph glyph-name="uni0494" unicode="&#x494;" horiz-adv-x="475" 
d="M384.5 341q44.5 -42 44.5 -123v-225q0 -77 -44 -120t-123 -43h-43l1 65h35q49 0 75.5 27t26.5 76v215q0 51 -28.5 77.5t-83.5 26.5q-44 0 -105 -11v-306h-71v656h318v-65h-247v-222q61 14 115 14q85 0 129.5 -42z" />
    <glyph glyph-name="uni0495" unicode="&#x495;" horiz-adv-x="456" 
d="M353.5 248.5q43.5 -33.5 43.5 -101.5v-164q0 -72 -38 -112.5t-106 -40.5h-49v64h41q41 0 62.5 24t21.5 70v145q0 43 -26.5 65t-74.5 22q-38 0 -93 -10v-211h-69v494h304v-63h-235v-160q51 12 104 12q71 0 114.5 -33.5z" />
    <glyph glyph-name="uni0496" unicode="&#x496;" horiz-adv-x="753" 
d="M726 65v-198h-72v133h-44l-122 295h-80v-295h-72v295h-82l-140 -295h-73v11l151 318l-148 316v11h72l138 -296h82v296h72v-296h82l138 296h72v-11l-148 -317l109 -263h65z" />
    <glyph glyph-name="uni0497" unicode="&#x497;" horiz-adv-x="694" 
d="M670 63v-191h-69v128h-43l-122 215h-68v-215h-69v215h-67l-132 -215h-73v11l144 236l-139 236v11h72l129 -216h66v216h69v-216h69l129 216h72v-11l-140 -236l105 -184h67z" />
    <glyph glyph-name="uni0498" unicode="&#x498;" horiz-adv-x="487" 
d="M412 278.5q22 -34.5 22 -82.5v-39q0 -76 -51.5 -122t-136.5 -46q-92 0 -141 50t-49 143v37h71v-37q0 -128 120 -128q53 0 84.5 30t31.5 80v31q0 49 -28 75t-81 26h-57v65h59q46 0 72 26.5t26 72.5v31q0 51 -29.5 81t-80.5 30q-56 0 -85.5 -33t-29.5 -94v-37h-71v37
q0 92 48.5 142t137.5 50q82 0 131.5 -46.5t49.5 -122.5v-39q0 -44 -20 -77.5t-56 -51.5q41 -17 63 -51.5zM284 7v-140h-70v140h70z" />
    <glyph glyph-name="uni0499" unicode="&#x499;" horiz-adv-x="422" 
d="M360.5 210.5q18.5 -27.5 18.5 -64.5v-20q0 -64 -45 -100.5t-125 -36.5q-85 0 -130 39.5t-45 112.5v20h67v-20q0 -43 27.5 -66t78.5 -23q50 0 77 21t27 60v16q0 34 -22 53t-63 19h-78v60h76q38 0 59.5 17.5t21.5 49.5v16q0 37 -26 57.5t-73 20.5t-73.5 -24t-26.5 -66v-21
h-68v21q0 71 44.5 111.5t121.5 40.5q79 0 124.5 -35.5t45.5 -97.5v-20q0 -35 -17 -60t-50 -39q35 -14 53.5 -41.5zM252 7v-140h-68v140h68z" />
    <glyph glyph-name="uni049A" unicode="&#x49a;" horiz-adv-x="505" 
d="M478 65v-198h-72v133h-46l-138 295h-82v-295h-71v656h71v-296h84l152 296h72v-11l-164 -317l124 -263h70z" />
    <glyph glyph-name="uni049B" unicode="&#x49b;" horiz-adv-x="465" 
d="M441 63v-191h-69v128h-41l-127 215h-69v-215h-69v494h69v-216h70l137 216h72v-11l-149 -237l109 -183h67z" />
    <glyph glyph-name="uni049C" unicode="&#x49c;" horiz-adv-x="536" 
d="M495 11v-11h-73l-139 295h-31v-160h-53v160h-59v-295h-71v656h71v-296h59v157h53v-157h31l137 296h72v-11l-146 -316z" />
    <glyph glyph-name="uni049D" unicode="&#x49d;" horiz-adv-x="488" 
d="M454 11v-11h-74l-118 215h-22v-140h-50v140h-55v-215h-69v494h69v-216h55v132h50v-132h22l115 216h72v-11l-127 -236z" />
    <glyph glyph-name="uni04A0" unicode="&#x4a0;" horiz-adv-x="598" 
d="M557 11v-11h-73l-153 295h-85v-295h-71v591h-165v65h236v-296h84l152 296h72v-11l-163 -316z" />
    <glyph glyph-name="uni04A1" unicode="&#x4a1;" horiz-adv-x="551" 
d="M524 11v-11h-73l-141 215h-70v-215h-69v431h-161v63h230v-216h70l137 216h72v-11l-148 -236z" />
    <glyph glyph-name="uni04A2" unicode="&#x4a2;" horiz-adv-x="537" 
d="M504 65v-198h-71v133h-65v295h-228v-295h-71v656h71v-296h228v296h71v-591h65z" />
    <glyph glyph-name="uni04A3" unicode="&#x4a3;" horiz-adv-x="498" 
d="M472 63v-191h-69v128h-65v215h-203v-215h-69v494h69v-215h203v215h69v-431h65z" />
    <glyph glyph-name="uni04A4" unicode="&#x4a4;" horiz-adv-x="618" 
d="M140 656v-296h208v296h260v-65h-188v-591h-72v295h-208v-295h-71v656h71z" />
    <glyph glyph-name="uni04A5" unicode="&#x4a5;" horiz-adv-x="580" 
d="M135 494v-215h187v215h248v-63h-178v-431h-70v215h-187v-215h-69v494h69z" />
    <glyph glyph-name="uni04AA" unicode="&#x4aa;" horiz-adv-x="502" 
d="M118 38q-50 49 -50 136v307q0 87 50.5 136.5t138.5 49.5q93 0 141.5 -51t48.5 -149v-60h-72v60q0 67 -30 101t-88 34q-57 0 -87.5 -33t-30.5 -93v-297q0 -60 30.5 -92.5t87.5 -32.5q58 0 88 33.5t30 97.5v63h72v-63q0 -96 -49 -146t-141 -50q-89 0 -139 49zM294 7v-140
h-70v140h70z" />
    <glyph glyph-name="uni04AB" unicode="&#x4ab;" horiz-adv-x="442" 
d="M100.5 31.5q-44.5 42.5 -44.5 117.5v194q0 76 44 119t123 43q78 0 122 -43t44 -119v-39h-69v36q0 46 -26 73t-71 27t-71.5 -27t-26.5 -73v-188q0 -44 27 -71t71 -27q45 0 71 26.5t26 71.5v35h69v-38q0 -74 -44 -117t-122 -43t-122.5 42.5zM252 7v-140h-68v140h68z" />
    <glyph glyph-name="uni04AE" unicode="&#x4ae;" horiz-adv-x="454" 
d="M429 645l-166 -369v-276h-72v276l-166 369v11h69l133 -295l133 295h69v-11z" />
    <glyph glyph-name="uni04AF" unicode="&#x4af;" 
d="M417 483l-160 -496v-157h-68v157l-160 496v11h67l127 -401l126 401h68v-11z" />
    <glyph glyph-name="uni04B0" unicode="&#x4b0;" horiz-adv-x="454" 
d="M429 645l-148 -330h110v-65h-128v-250h-72v250h-128v65h110l-148 330v11h69l133 -295l133 295h69v-11z" />
    <glyph glyph-name="uni04B1" unicode="&#x4b1;" 
d="M417 483l-137 -422h108v-61h-131v-170h-68v170h-131v61h108l-137 422v11h67l127 -405l126 405h68v-11z" />
    <glyph glyph-name="uni04B2" unicode="&#x4b2;" horiz-adv-x="508" 
d="M481 65v-198h-72v133h-44l-122 262l-131 -262h-71v11l156 309l-155 325v11h72l131 -278l136 278h72v-11l-162 -325l120 -255h70z" />
    <glyph glyph-name="uni04B3" unicode="&#x4b3;" horiz-adv-x="451" 
d="M427 63v-191h-69v128h-41l-102 186l-110 -186h-71v11l139 234l-135 238v11h71l108 -191l111 191h71v-11l-140 -238l101 -182h67z" />
    <glyph glyph-name="uni04B6" unicode="&#x4b6;" horiz-adv-x="523" 
d="M486 65v-198h-70v133h-66v272q-61 -14 -116 -14q-85 0 -129.5 42.5t-44.5 123.5v232h72v-228q0 -51 28.5 -77.5t84.5 -26.5q43 0 105 12v320h71v-591h65z" />
    <glyph glyph-name="uni04B7" unicode="&#x4b7;" horiz-adv-x="487" 
d="M449 63v-191h-69v128h-65v175q-55 -11 -100 -11q-76 0 -119 35.5t-43 99.5v195h68v-181q0 -41 27 -64t75 -23q35 0 92 11v257h69v-431h65z" />
    <glyph glyph-name="uni04B8" unicode="&#x4b8;" horiz-adv-x="481" 
d="M412 656v-656h-71v270q-32 -8 -76 -11v-146h-53v146q-74 6 -113 48.5t-39 116.5v232h72v-228q0 -43 21 -69.5t59 -32.5v180h53v-181q31 3 76 12v319h71z" />
    <glyph glyph-name="uni04B9" unicode="&#x4b9;" horiz-adv-x="453" 
d="M387 494v-494h-69v176q-40 -10 -73 -11v-108h-50v108q-69 5 -105.5 40.5t-36.5 96.5v192h68v-183q0 -39 17.5 -59t56.5 -24v169h50v-170q35 2 73 10v257h69z" />
    <glyph glyph-name="uni04BA" unicode="&#x4ba;" horiz-adv-x="490" 
d="M385.5 355.5q44.5 -42.5 44.5 -123.5v-232h-72v228q0 51 -28.5 77.5t-84.5 26.5q-43 0 -105 -12v-320h-71v656h71v-272q61 14 116 14q85 0 129.5 -42.5z" />
    <glyph glyph-name="uni04BB" unicode="&#x4bb;" horiz-adv-x="459" 
d="M357.5 464.5q39.5 -40.5 39.5 -115.5v-349h-69v338q0 102 -95 102q-30 0 -56 -15.5t-42 -42.5v-382h-69v696h69v-239q21 23 50.5 35.5t62.5 12.5q70 0 109.5 -40.5z" />
    <glyph glyph-name="uni04C0" unicode="&#x4c0;" horiz-adv-x="220" 
d="M146 656v-656h-72v656h72z" />
    <glyph glyph-name="uni04C1" unicode="&#x4c1;" horiz-adv-x="744" 
d="M703 11v-11h-73l-138 295h-84v-295h-72v295h-84l-138 -295h-73v11l149 318l-146 316v11h72l136 -296h84v296h72v-296h84l136 296h72v-11l-146 -317zM277.5 759q-35.5 28 -35.5 75v11h61v-11q0 -20 19 -32.5t50 -12.5t50 12.5t19 32.5v11h61v-11q0 -47 -35.5 -75
t-94.5 -28t-94.5 28z" />
    <glyph glyph-name="uni04C2" unicode="&#x4c2;" horiz-adv-x="684" 
d="M650 11v-11h-74l-131 215h-69v-215h-68v215h-69l-132 -215h-73v11l144 236l-139 236v11h72l129 -216h68v216h68v-216h69l128 216h72v-11l-139 -236zM248.5 597q-35.5 28 -35.5 75v11h61v-11q0 -20 19 -32.5t50 -12.5t50 12.5t19 32.5v11h61v-11q0 -47 -35.5 -75
t-94.5 -28t-94.5 28z" />
    <glyph glyph-name="uni04CF" unicode="&#x4cf;" horiz-adv-x="210" 
d="M139 696v-696h-68v696h68z" />
    <glyph glyph-name="uni04D0" unicode="&#x4d0;" horiz-adv-x="499" 
d="M465 11v-11h-72l-42 163h-202l-42 -163h-72v11l174 645h83zM334 228l-84 327l-84 -327h168zM155.5 759q-35.5 28 -35.5 75v11h61v-11q0 -20 19 -32.5t50 -12.5t50 12.5t19 32.5v11h61v-11q0 -47 -35.5 -75t-94.5 -28t-94.5 28z" />
    <glyph glyph-name="uni04D1" unicode="&#x4d1;" horiz-adv-x="462" 
d="M457 63v-63h-45q-69 0 -93 47q-43 -58 -129 -58q-66 0 -104.5 36.5t-38.5 100.5q0 62 38 97.5t118 48.5l104 17v53q0 98 -93 98q-47 0 -72 -25.5t-25 -73.5v-10h-68v10q0 79 42 121.5t121 42.5q80 0 121.5 -42t41.5 -124v-221q0 -55 50 -55h32zM263 68.5q30 19.5 44 51.5
v113l-89 -15q-53 -9 -78.5 -31.5t-25.5 -59.5q0 -36 22 -57t60 -21q37 0 67 19.5zM126.5 597q-35.5 28 -35.5 75v11h61v-11q0 -20 19 -32.5t50 -12.5t50 12.5t19 32.5v11h61v-11q0 -47 -35.5 -75t-94.5 -28t-94.5 28z" />
    <glyph glyph-name="uni04D2" unicode="&#x4d2;" horiz-adv-x="499" 
d="M465 11v-11h-72l-42 163h-202l-42 -163h-72v11l174 645h83zM334 228l-84 327l-84 -327h168zM131.5 758.5q-12.5 12.5 -12.5 32.5t12.5 32.5t31.5 12.5q20 0 32.5 -12t12.5 -33t-12.5 -33t-32.5 -12q-19 0 -31.5 12.5zM304 758.5q-13 12.5 -13 32.5t13 32.5t32 12.5
q20 0 32.5 -12.5t12.5 -32.5t-12.5 -32.5t-32.5 -12.5q-19 0 -32 12.5z" />
    <glyph glyph-name="uni04D3" unicode="&#x4d3;" horiz-adv-x="462" 
d="M457 63v-63h-45q-69 0 -93 47q-43 -58 -129 -58q-66 0 -104.5 36.5t-38.5 100.5q0 62 38 97.5t118 48.5l104 17v53q0 98 -93 98q-47 0 -72 -25.5t-25 -73.5v-10h-68v10q0 79 42 121.5t121 42.5q80 0 121.5 -42t41.5 -124v-221q0 -55 50 -55h32zM263 68.5q30 19.5 44 51.5
v113l-89 -15q-53 -9 -78.5 -31.5t-25.5 -59.5q0 -36 22 -57t60 -21q37 0 67 19.5zM102.5 596.5q-12.5 12.5 -12.5 32.5t12.5 32.5t31.5 12.5q20 0 32.5 -12t12.5 -33t-12.5 -33t-32.5 -12q-19 0 -31.5 12.5zM275 596.5q-13 12.5 -13 32.5t13 32.5t32 12.5q20 0 32.5 -12.5
t12.5 -32.5t-12.5 -32.5t-32.5 -12.5q-19 0 -32 12.5z" />
    <glyph glyph-name="uni04D4" unicode="&#x4d4;" horiz-adv-x="657" 
d="M362 590l30 -229h214v-66h-205l30 -230h195v-65h-258l-21 163h-201l-43 -163h-68v11l172 645h419v-66h-264zM292 590h-34l-95 -362h175z" />
    <glyph glyph-name="uni04D5" unicode="&#x4d5;" horiz-adv-x="695" 
d="M379 231v-81q0 -44 27 -70t72 -26q43 0 68 27t25 74h68q-1 -79 -43.5 -122.5t-117.5 -43.5q-49 0 -86 17t-59 48q-22 -31 -57 -48t-80 -17q-71 0 -110 35.5t-39 99.5q0 61 37.5 96t118.5 48l101 16v61q0 46 -23.5 70.5t-68.5 24.5q-46 0 -70.5 -25.5t-24.5 -73.5v-10h-68
v10q0 80 41 122t118 42q49 0 83.5 -17.5t53.5 -51.5q21 33 56.5 51t80.5 18q70 0 113.5 -45t43.5 -117v-112h-260zM405.5 413q-26.5 -27 -26.5 -72v-53h192v53q0 44 -26 71.5t-68 27.5q-45 0 -71.5 -27zM265.5 68.5q27.5 19.5 40.5 54.5q-2 20 -2 31v73l-87 -14
q-53 -8 -78 -29t-25 -58t22.5 -57t63.5 -20q38 0 65.5 19.5z" />
    <glyph glyph-name="uni04D6" unicode="&#x4d6;" horiz-adv-x="429" 
d="M398 656v-65h-258v-231h244v-65h-244v-230h258v-65h-329v656h329zM139.5 759q-35.5 28 -35.5 75v11h61v-11q0 -20 19 -32.5t50 -12.5t50 12.5t19 32.5v11h61v-11q0 -47 -35.5 -75t-94.5 -28t-94.5 28z" />
    <glyph glyph-name="uni04D7" unicode="&#x4d7;" 
d="M124 224v-76q0 -44 27 -69.5t72 -25.5q46 0 72.5 26.5t26.5 75.5h68q-1 -80 -45.5 -123t-121.5 -43q-78 0 -122.5 42.5t-44.5 117.5v194q0 76 44.5 119t122.5 43t122.5 -43t44.5 -119v-119h-266zM151.5 414q-27.5 -26 -27.5 -70v-62h198v62q0 45 -27 70.5t-72 25.5
q-44 0 -71.5 -26zM128.5 597q-35.5 28 -35.5 75v11h61v-11q0 -20 19 -32.5t50 -12.5t50 12.5t19 32.5v11h61v-11q0 -47 -35.5 -75t-94.5 -28t-94.5 28z" />
    <glyph glyph-name="uni04D8" unicode="&#x4d8;" horiz-adv-x="512" 
d="M393 616.5q51 -50.5 51 -135.5v-307q0 -86 -50.5 -135.5t-137.5 -49.5q-88 0 -138 50.5t-50 138.5v181h308v116q0 60 -31.5 93.5t-88.5 33.5q-119 0 -119 -140h-69q0 100 48.5 152.5t139.5 52.5q86 0 137 -50.5zM344.5 87q31.5 33 31.5 93v114h-239v-114
q0 -59 31.5 -92.5t87.5 -33.5q57 0 88.5 33z" />
    <glyph glyph-name="uni04D9" unicode="&#x4d9;" 
d="M345.5 462q44.5 -43 44.5 -118v-193q0 -77 -44.5 -119.5t-122.5 -42.5t-122.5 43t-44.5 119v118h266v76q0 44 -27 69.5t-72 25.5q-46 0 -72.5 -26.5t-26.5 -75.5h-68q1 80 45.5 123.5t121.5 43.5q78 0 122.5 -43zM294.5 79.5q27.5 26.5 27.5 70.5v62h-198v-62
q0 -45 27 -71t72 -26q44 0 71.5 26.5z" />
    <glyph glyph-name="uni04DA" unicode="&#x4da;" horiz-adv-x="512" 
d="M393 616.5q51 -50.5 51 -135.5v-307q0 -86 -50.5 -135.5t-137.5 -49.5q-88 0 -138 50.5t-50 138.5v181h308v116q0 60 -31.5 93.5t-88.5 33.5q-119 0 -119 -140h-69q0 100 48.5 152.5t139.5 52.5q86 0 137 -50.5zM344.5 87q31.5 33 31.5 93v114h-239v-114
q0 -59 31.5 -92.5t87.5 -33.5q57 0 88.5 33zM137.5 758.5q-12.5 12.5 -12.5 32.5t12.5 32.5t31.5 12.5q20 0 32.5 -12t12.5 -33t-12.5 -33t-32.5 -12q-19 0 -31.5 12.5zM310 758.5q-13 12.5 -13 32.5t13 32.5t32 12.5q20 0 32.5 -12.5t12.5 -32.5t-12.5 -32.5t-32.5 -12.5
q-19 0 -32 12.5z" />
    <glyph glyph-name="uni04DB" unicode="&#x4db;" 
d="M345.5 462q44.5 -43 44.5 -118v-193q0 -77 -44.5 -119.5t-122.5 -42.5t-122.5 43t-44.5 119v118h266v76q0 44 -27 69.5t-72 25.5q-46 0 -72.5 -26.5t-26.5 -75.5h-68q1 80 45.5 123.5t121.5 43.5q78 0 122.5 -43zM294.5 79.5q27.5 26.5 27.5 70.5v62h-198v-62
q0 -45 27 -71t72 -26q44 0 71.5 26.5zM104.5 596.5q-12.5 12.5 -12.5 32.5t12.5 32.5t31.5 12.5q20 0 32.5 -12t12.5 -33t-12.5 -33t-32.5 -12q-19 0 -31.5 12.5zM277 596.5q-13 12.5 -13 32.5t13 32.5t32 12.5q20 0 32.5 -12.5t12.5 -32.5t-12.5 -32.5t-32.5 -12.5
q-19 0 -32 12.5z" />
    <glyph glyph-name="uni04DC" unicode="&#x4dc;" horiz-adv-x="744" 
d="M703 11v-11h-73l-138 295h-84v-295h-72v295h-84l-138 -295h-73v11l149 318l-146 316v11h72l136 -296h84v296h72v-296h84l136 296h72v-11l-146 -317zM253.5 758.5q-12.5 12.5 -12.5 32.5t12.5 32.5t31.5 12.5q20 0 32.5 -12t12.5 -33t-12.5 -33t-32.5 -12
q-19 0 -31.5 12.5zM426 758.5q-13 12.5 -13 32.5t13 32.5t32 12.5q20 0 32.5 -12.5t12.5 -32.5t-12.5 -32.5t-32.5 -12.5q-19 0 -32 12.5z" />
    <glyph glyph-name="uni04DD" unicode="&#x4dd;" horiz-adv-x="684" 
d="M650 11v-11h-74l-131 215h-69v-215h-68v215h-69l-132 -215h-73v11l144 236l-139 236v11h72l129 -216h68v216h68v-216h69l128 216h72v-11l-139 -236zM224.5 596.5q-12.5 12.5 -12.5 32.5t12.5 32.5t31.5 12.5q20 0 32.5 -12t12.5 -33t-12.5 -33t-32.5 -12
q-19 0 -31.5 12.5zM397 596.5q-13 12.5 -13 32.5t13 32.5t32 12.5q20 0 32.5 -12.5t12.5 -32.5t-12.5 -32.5t-32.5 -12.5q-19 0 -32 12.5z" />
    <glyph glyph-name="uni04DE" unicode="&#x4de;" horiz-adv-x="487" 
d="M412 278.5q22 -34.5 22 -82.5v-39q0 -76 -51.5 -122t-136.5 -46q-92 0 -141 50t-49 143v37h71v-37q0 -128 120 -128q53 0 84.5 30t31.5 80v31q0 49 -28 75t-81 26h-57v65h59q46 0 72 26.5t26 72.5v31q0 51 -29.5 81t-80.5 30q-56 0 -85.5 -33t-29.5 -94v-37h-71v37
q0 92 48.5 142t137.5 50q82 0 131.5 -46.5t49.5 -122.5v-39q0 -44 -20 -77.5t-56 -51.5q41 -17 63 -51.5zM130.5 758.5q-12.5 12.5 -12.5 32.5t12.5 32.5t31.5 12.5q20 0 32.5 -12t12.5 -33t-12.5 -33t-32.5 -12q-19 0 -31.5 12.5zM303 758.5q-13 12.5 -13 32.5t13 32.5
t32 12.5q20 0 32.5 -12.5t12.5 -32.5t-12.5 -32.5t-32.5 -12.5q-19 0 -32 12.5z" />
    <glyph glyph-name="uni04DF" unicode="&#x4df;" horiz-adv-x="422" 
d="M360.5 210.5q18.5 -27.5 18.5 -64.5v-20q0 -64 -45 -100.5t-125 -36.5q-85 0 -130 39.5t-45 112.5v20h67v-20q0 -43 27.5 -66t78.5 -23q50 0 77 21t27 60v16q0 34 -22 53t-63 19h-78v60h76q38 0 59.5 17.5t21.5 49.5v16q0 37 -26 57.5t-73 20.5t-73.5 -24t-26.5 -66v-21
h-68v21q0 71 44.5 111.5t121.5 40.5q79 0 124.5 -35.5t45.5 -97.5v-20q0 -35 -17 -60t-50 -39q35 -14 53.5 -41.5zM99.5 595.5q-12.5 12.5 -12.5 32.5t12.5 32.5t31.5 12.5q20 0 32.5 -12t12.5 -33t-12.5 -33t-32.5 -12q-19 0 -31.5 12.5zM272 595.5q-13 12.5 -13 32.5
t13 32.5t32 12.5q20 0 32.5 -12.5t12.5 -32.5t-12.5 -32.5t-32.5 -12.5q-19 0 -32 12.5z" />
    <glyph glyph-name="uni04E2" unicode="&#x4e2;" horiz-adv-x="504" 
d="M139 656v-506l224 506h72v-656h-70v507l-223 -507h-73v656h70zM383 822v-61h-260v61h260z" />
    <glyph glyph-name="uni04E3" unicode="&#x4e3;" horiz-adv-x="461" 
d="M132 494v-369l198 369h65v-494h-66v368l-199 -368h-64v494h66zM360 660v-61h-260v61h260z" />
    <glyph glyph-name="uni04E4" unicode="&#x4e4;" horiz-adv-x="504" 
d="M139 656v-506l224 506h72v-656h-70v507l-223 -507h-73v656h70zM134.5 758.5q-12.5 12.5 -12.5 32.5t12.5 32.5t31.5 12.5q20 0 32.5 -12t12.5 -33t-12.5 -33t-32.5 -12q-19 0 -31.5 12.5zM307 758.5q-13 12.5 -13 32.5t13 32.5t32 12.5q20 0 32.5 -12.5t12.5 -32.5
t-12.5 -32.5t-32.5 -12.5q-19 0 -32 12.5z" />
    <glyph glyph-name="uni04E5" unicode="&#x4e5;" horiz-adv-x="461" 
d="M132 494v-369l198 369h65v-494h-66v368l-199 -368h-64v494h66zM111.5 596.5q-12.5 12.5 -12.5 32.5t12.5 32.5t31.5 12.5q20 0 32.5 -12t12.5 -33t-12.5 -33t-32.5 -12q-19 0 -31.5 12.5zM284 596.5q-13 12.5 -13 32.5t13 32.5t32 12.5q20 0 32.5 -12.5t12.5 -32.5
t-12.5 -32.5t-32.5 -12.5q-19 0 -32 12.5z" />
    <glyph glyph-name="uni04E6" unicode="&#x4e6;" horiz-adv-x="512" 
d="M118 38.5q-50 49.5 -50 135.5v307q0 87 50.5 136.5t137.5 49.5q88 0 138 -50t50 -136v-307q0 -86 -50 -135.5t-138 -49.5t-138 49.5zM342 87q31 33 31 92v297q0 60 -30.5 93t-86.5 33t-86.5 -33t-30.5 -93v-297q0 -59 31 -92t86 -33t86 33zM137.5 758.5
q-12.5 12.5 -12.5 32.5t12.5 32.5t31.5 12.5q20 0 32.5 -12t12.5 -33t-12.5 -33t-32.5 -12q-19 0 -31.5 12.5zM310 758.5q-13 12.5 -13 32.5t13 32.5t32 12.5q20 0 32.5 -12.5t12.5 -32.5t-12.5 -32.5t-32.5 -12.5q-19 0 -32 12.5z" />
    <glyph glyph-name="uni04E7" unicode="&#x4e7;" 
d="M101.5 30.5q-45.5 41.5 -45.5 118.5v194q0 78 45.5 120t121.5 42t121.5 -42t45.5 -120v-194q0 -77 -45.5 -118.5t-121.5 -41.5t-121.5 41.5zM294 80q27 26 27 72v188q0 48 -27 74t-71 26t-71 -26t-27 -74v-188q0 -46 27 -72t71 -26t71 26zM104.5 596.5
q-12.5 12.5 -12.5 32.5t12.5 32.5t31.5 12.5q20 0 32.5 -12t12.5 -33t-12.5 -33t-32.5 -12q-19 0 -31.5 12.5zM277 596.5q-13 12.5 -13 32.5t13 32.5t32 12.5q20 0 32.5 -12.5t12.5 -32.5t-12.5 -32.5t-32.5 -12.5q-19 0 -32 12.5z" />
    <glyph glyph-name="uni04E8" unicode="&#x4e8;" horiz-adv-x="512" 
d="M393 617q51 -50 51 -136v-307q0 -86 -51 -135.5t-137 -49.5t-137 49.5t-51 135.5v307q0 87 51 136.5t137 49.5t137 -50zM168.5 569q-31.5 -33 -31.5 -93v-115h239v115q0 60 -32 93t-88 33t-87.5 -33zM344 87q32 33 32 92v117h-239v-117q0 -60 31.5 -92.5t87.5 -32.5
t88 33z" />
    <glyph glyph-name="uni04E9" unicode="&#x4e9;" 
d="M346 462q44 -43 44 -119v-194q0 -75 -44 -117.5t-123 -42.5q-78 0 -122.5 42.5t-44.5 117.5v194q0 76 44 119t123 43t123 -43zM149.5 415q-27.5 -28 -27.5 -75v-63h202v63q0 48 -26.5 75.5t-73.5 27.5t-74.5 -28zM297 78.5q27 27.5 27 73.5v66h-202v-66q0 -46 27.5 -73.5
t74.5 -27.5q46 0 73 27.5z" />
    <glyph glyph-name="uni04EE" unicode="&#x4ee;" horiz-adv-x="459" 
d="M448 656v-11l-182 -542q-19 -57 -48.5 -80t-83.5 -23h-61v65h56q29 0 44.5 13t28.5 48l4 12l-175 507v11h70l141 -425l138 425h68zM365 822v-61h-260v61h260z" />
    <glyph glyph-name="uni04EF" unicode="&#x4ef;" horiz-adv-x="464" 
d="M435 494v-11l-185 -550q-19 -58 -49 -80.5t-86 -22.5h-49v64h43q33 0 48.5 12t26.5 48l15 49l-170 480v11h72l134 -395l128 395h72zM362 660v-61h-260v61h260z" />
    <glyph glyph-name="uni04F0" unicode="&#x4f0;" horiz-adv-x="459" 
d="M448 656v-11l-182 -542q-19 -57 -48.5 -80t-83.5 -23h-61v65h56q29 0 44.5 13t28.5 48l4 12l-175 507v11h70l141 -425l138 425h68zM116.5 758.5q-12.5 12.5 -12.5 32.5t12.5 32.5t31.5 12.5q20 0 32.5 -12t12.5 -33t-12.5 -33t-32.5 -12q-19 0 -31.5 12.5zM289 758.5
q-13 12.5 -13 32.5t13 32.5t32 12.5q20 0 32.5 -12.5t12.5 -32.5t-12.5 -32.5t-32.5 -12.5q-19 0 -32 12.5z" />
    <glyph glyph-name="uni04F1" unicode="&#x4f1;" horiz-adv-x="464" 
d="M435 494v-11l-185 -550q-19 -58 -49 -80.5t-86 -22.5h-49v64h43q33 0 48.5 12t26.5 48l15 49l-170 480v11h72l134 -395l128 395h72zM113.5 596.5q-12.5 12.5 -12.5 32.5t12.5 32.5t31.5 12.5q20 0 32.5 -12t12.5 -33t-12.5 -33t-32.5 -12q-19 0 -31.5 12.5zM286 596.5
q-13 12.5 -13 32.5t13 32.5t32 12.5q20 0 32.5 -12.5t12.5 -32.5t-12.5 -32.5t-32.5 -12.5q-19 0 -32 12.5z" />
    <glyph glyph-name="uni04F2" unicode="&#x4f2;" horiz-adv-x="459" 
d="M448 656v-11l-182 -542q-19 -57 -48.5 -80t-83.5 -23h-61v65h56q29 0 44.5 13t28.5 48l4 12l-175 507v11h70l141 -425l138 425h68zM268 856v-64l-183 -65v63zM461 856v-64l-182 -65v63z" />
    <glyph glyph-name="uni04F3" unicode="&#x4f3;" horiz-adv-x="464" 
d="M435 494v-11l-185 -550q-19 -58 -49 -80.5t-86 -22.5h-49v64h43q33 0 48.5 12t26.5 48l15 49l-170 480v11h72l134 -395l128 395h72zM265 694v-64l-183 -65v63zM458 694v-64l-182 -65v63z" />
    <glyph glyph-name="uni04F4" unicode="&#x4f4;" horiz-adv-x="490" 
d="M421 656v-656h-71v272q-61 -14 -116 -14q-85 0 -129.5 42.5t-44.5 123.5v232h72v-228q0 -51 28.5 -77.5t84.5 -26.5q43 0 105 12v320h71zM126.5 758.5q-12.5 12.5 -12.5 32.5t12.5 32.5t31.5 12.5q20 0 32.5 -12t12.5 -33t-12.5 -33t-32.5 -12q-19 0 -31.5 12.5z
M299 758.5q-13 12.5 -13 32.5t13 32.5t32 12.5q20 0 32.5 -12.5t12.5 -32.5t-12.5 -32.5t-32.5 -12.5q-19 0 -32 12.5z" />
    <glyph glyph-name="uni04F5" unicode="&#x4f5;" horiz-adv-x="450" 
d="M384 494v-494h-69v175q-55 -11 -100 -11q-76 0 -119 35.5t-43 99.5v195h68v-181q0 -41 27 -64t75 -23q35 0 92 11v257h69zM101.5 596.5q-12.5 12.5 -12.5 32.5t12.5 32.5t31.5 12.5q20 0 32.5 -12t12.5 -33t-12.5 -33t-32.5 -12q-19 0 -31.5 12.5zM274 596.5
q-13 12.5 -13 32.5t13 32.5t32 12.5q20 0 32.5 -12.5t12.5 -32.5t-12.5 -32.5t-32.5 -12.5q-19 0 -32 12.5z" />
    <glyph glyph-name="uni04F8" unicode="&#x4f8;" horiz-adv-x="670" 
d="M143 656v-272h124q89 0 135 -45t46 -133v-29q0 -87 -46 -132t-135 -45h-195v656h71zM598 656v-656h-71v656h71zM377 178v29q0 112 -115 112h-119v-254h119q115 0 115 113zM211.5 758.5q-12.5 12.5 -12.5 32.5t12.5 32.5t31.5 12.5q20 0 32.5 -12t12.5 -33t-12.5 -33
t-32.5 -12q-19 0 -31.5 12.5zM384 758.5q-13 12.5 -13 32.5t13 32.5t32 12.5q20 0 32.5 -12.5t12.5 -32.5t-12.5 -32.5t-32.5 -12.5q-19 0 -32 12.5z" />
    <glyph glyph-name="uni04F9" unicode="&#x4f9;" horiz-adv-x="611" 
d="M365 281.5q43 -40.5 43 -113.5v-15q0 -72 -43 -112.5t-123 -40.5h-174v494h69v-172h105q80 0 123 -40.5zM543 494v-494h-70v494h70zM340 168q0 44 -26.5 68t-77.5 24h-99v-198h99q51 0 77.5 23.5t26.5 67.5v15zM187.5 596.5q-12.5 12.5 -12.5 32.5t12.5 32.5t31.5 12.5
q20 0 32.5 -12t12.5 -33t-12.5 -33t-32.5 -12q-19 0 -31.5 12.5zM360 596.5q-13 12.5 -13 32.5t13 32.5t32 12.5q20 0 32.5 -12.5t12.5 -32.5t-12.5 -32.5t-32.5 -12.5q-19 0 -32 12.5z" />
    <glyph glyph-name="uni1E62" unicode="&#x1e62;" horiz-adv-x="458" 
d="M93 36.5q-47 47.5 -47 135.5v30h69v-30q0 -57 29 -87.5t83 -30.5q53 0 83.5 27.5t30.5 75.5v12q0 42 -22.5 71.5t-78.5 54.5l-49 22q-70 32 -102.5 72t-32.5 98v17q0 74 48 118.5t130 44.5t128 -45.5t46 -127.5v-30h-70v30q0 53 -26 81t-79 28q-50 0 -78 -25.5t-28 -71.5
v-11q0 -39 20.5 -66t72.5 -50l51 -22q74 -33 107.5 -75.5t33.5 -105.5v-17q0 -78 -49.5 -124t-135.5 -46q-87 0 -134 47.5zM193.5 -172q-14.5 14 -14.5 36t14.5 36t35.5 14q22 0 36 -14t14 -36t-14 -36t-36 -14q-21 0 -35.5 14z" />
    <glyph glyph-name="uni1E63" unicode="&#x1e63;" horiz-adv-x="427" 
d="M93.5 27q-42.5 38 -42.5 107v19h68v-19q0 -39 25.5 -61t69.5 -22q42 0 67.5 20t25.5 53v9q0 32 -19 50.5t-63 31.5l-48 14q-116 33 -116 132v13q0 60 42 95.5t114 35.5q74 0 116 -38t42 -105v-19h-68v19q0 37 -25 59t-66 22q-40 0 -63.5 -18.5t-23.5 -49.5v-9
q0 -30 16.5 -48.5t53.5 -28.5l55 -15q64 -17 93 -49.5t29 -87.5v-14q0 -62 -43.5 -98t-118.5 -36q-78 0 -120.5 38zM175.5 -172q-14.5 14 -14.5 36t14.5 36t35.5 14q22 0 36 -14t14 -36t-14 -36t-36 -14q-21 0 -35.5 14z" />
    <glyph glyph-name="Wgrave" unicode="&#x1e80;" horiz-adv-x="782" 
d="M748 656v-11l-153 -645h-83l-121 523l-121 -523h-82l-153 645v11h70l125 -542l127 542h69l127 -540l125 540h70zM261 855l260 -66v-62l-260 66v62z" />
    <glyph glyph-name="wgrave" unicode="&#x1e81;" horiz-adv-x="678" 
d="M649 494v-11l-129 -483h-80l-101 380l-101 -380h-80l-129 483v11h66l104 -407l104 407h72l104 -407l104 407h66zM209 693l260 -66v-62l-260 66v62z" />
    <glyph glyph-name="Wacute" unicode="&#x1e82;" horiz-adv-x="782" 
d="M748 656v-11l-153 -645h-83l-121 523l-121 -523h-82l-153 645v11h70l125 -542l127 542h69l127 -540l125 540h70zM521 855v-62l-260 -66v62z" />
    <glyph glyph-name="wacute" unicode="&#x1e83;" horiz-adv-x="678" 
d="M649 494v-11l-129 -483h-80l-101 380l-101 -380h-80l-129 483v11h66l104 -407l104 407h72l104 -407l104 407h66zM469 693v-62l-260 -66v62z" />
    <glyph glyph-name="Wdieresis" unicode="&#x1e84;" horiz-adv-x="782" 
d="M748 656v-11l-153 -645h-83l-121 523l-121 -523h-82l-153 645v11h70l125 -542l127 542h69l127 -540l125 540h70zM272.5 758.5q-12.5 12.5 -12.5 32.5t12.5 32.5t31.5 12.5q20 0 32.5 -12t12.5 -33t-12.5 -33t-32.5 -12q-19 0 -31.5 12.5zM445 758.5q-13 12.5 -13 32.5
t13 32.5t32 12.5q20 0 32.5 -12.5t12.5 -32.5t-12.5 -32.5t-32.5 -12.5q-19 0 -32 12.5z" />
    <glyph glyph-name="wdieresis" unicode="&#x1e85;" horiz-adv-x="678" 
d="M649 494v-11l-129 -483h-80l-101 380l-101 -380h-80l-129 483v11h66l104 -407l104 407h72l104 -407l104 407h66zM220.5 596.5q-12.5 12.5 -12.5 32.5t12.5 32.5t31.5 12.5q20 0 32.5 -12t12.5 -33t-12.5 -33t-32.5 -12q-19 0 -31.5 12.5zM393 596.5q-13 12.5 -13 32.5
t13 32.5t32 12.5q20 0 32.5 -12.5t12.5 -32.5t-12.5 -32.5t-32.5 -12.5q-19 0 -32 12.5z" />
    <glyph glyph-name="uni1E9E" unicode="&#x1e9e;" horiz-adv-x="518" 
d="M443 309q38 -41 38 -108v-36q0 -77 -46.5 -121t-129.5 -44h-43v65h38q51 0 80.5 27t29.5 73v36q0 47 -29 73t-81 26h-38v56l131 235h-187q-32 0 -49 -18t-17 -52v-521h-71v522q0 134 137 134h262v-65l-132 -233q69 -8 107 -49z" />
    <glyph glyph-name="uni1EB8" unicode="&#x1eb8;" horiz-adv-x="429" 
d="M398 656v-65h-258v-231h244v-65h-244v-230h258v-65h-329v656h329zM198.5 -172q-14.5 14 -14.5 36t14.5 36t35.5 14q22 0 36 -14t14 -36t-14 -36t-36 -14q-21 0 -35.5 14z" />
    <glyph glyph-name="uni1EB9" unicode="&#x1eb9;" 
d="M124 224v-76q0 -44 27 -69.5t72 -25.5q46 0 72.5 26.5t26.5 75.5h68q-1 -80 -45.5 -123t-121.5 -43q-78 0 -122.5 42.5t-44.5 117.5v194q0 76 44.5 119t122.5 43t122.5 -43t44.5 -119v-119h-266zM151.5 414q-27.5 -26 -27.5 -70v-62h198v62q0 45 -27 70.5t-72 25.5
q-44 0 -71.5 -26zM187.5 -172q-14.5 14 -14.5 36t14.5 36t35.5 14q22 0 36 -14t14 -36t-14 -36t-36 -14q-21 0 -35.5 14z" />
    <glyph glyph-name="uni1EBC" unicode="&#x1ebc;" horiz-adv-x="429" 
d="M398 656v-65h-258v-231h244v-65h-244v-230h258v-65h-329v656h329zM236 761q-15 5 -30.5 9.5t-30.5 4.5q-35 0 -71 -21v60q37 22 72 22q15 0 30.5 -4.5t30.5 -9.5q40 -14 65 -14q32 0 62 15v-61q-30 -15 -62 -15q-26 0 -66 14z" />
    <glyph glyph-name="uni1EBD" unicode="&#x1ebd;" 
d="M124 224v-76q0 -44 27 -69.5t72 -25.5q46 0 72.5 26.5t26.5 75.5h68q-1 -80 -45.5 -123t-121.5 -43q-78 0 -122.5 42.5t-44.5 117.5v194q0 76 44.5 119t122.5 43t122.5 -43t44.5 -119v-119h-266zM151.5 414q-27.5 -26 -27.5 -70v-62h198v62q0 45 -27 70.5t-72 25.5
q-44 0 -71.5 -26zM225 599q-15 5 -30.5 9.5t-30.5 4.5q-35 0 -71 -21v60q37 22 72 22q15 0 30.5 -4.5t30.5 -9.5q40 -14 65 -14q32 0 62 15v-61q-30 -15 -62 -15q-26 0 -66 14z" />
    <glyph glyph-name="uni1ECA" unicode="&#x1eca;" horiz-adv-x="220" 
d="M146 656v-656h-72v656h72zM74.5 -172q-14.5 14 -14.5 36t14.5 36t35.5 14q22 0 36 -14t14 -36t-14 -36t-36 -14q-21 0 -35.5 14z" />
    <glyph glyph-name="uni1ECB" unicode="&#x1ecb;" horiz-adv-x="210" 
d="M139 494v-494h-68v494h68zM69.5 593q-14.5 14 -14.5 36t14.5 36t35.5 14q22 0 36 -13.5t14 -36.5q0 -22 -14 -36t-36 -14q-21 0 -35.5 14zM69.5 -172q-14.5 14 -14.5 36t14.5 36t35.5 14q22 0 36 -14t14 -36t-14 -36t-36 -14q-21 0 -35.5 14z" />
    <glyph glyph-name="uni1ECC" unicode="&#x1ecc;" horiz-adv-x="512" 
d="M118 38.5q-50 49.5 -50 135.5v307q0 87 50.5 136.5t137.5 49.5q88 0 138 -50t50 -136v-307q0 -86 -50 -135.5t-138 -49.5t-138 49.5zM342 87q31 33 31 92v297q0 60 -30.5 93t-86.5 33t-86.5 -33t-30.5 -93v-297q0 -59 31 -92t86 -33t86 33zM220.5 -172q-14.5 14 -14.5 36
t14.5 36t35.5 14q22 0 36 -14t14 -36t-14 -36t-36 -14q-21 0 -35.5 14z" />
    <glyph glyph-name="uni1ECD" unicode="&#x1ecd;" 
d="M101.5 30.5q-45.5 41.5 -45.5 118.5v194q0 78 45.5 120t121.5 42t121.5 -42t45.5 -120v-194q0 -77 -45.5 -118.5t-121.5 -41.5t-121.5 41.5zM294 80q27 26 27 72v188q0 48 -27 74t-71 26t-71 -26t-27 -74v-188q0 -46 27 -72t71 -26t71 26zM187.5 -172q-14.5 14 -14.5 36
t14.5 36t35.5 14q22 0 36 -14t14 -36t-14 -36t-36 -14q-21 0 -35.5 14z" />
    <glyph glyph-name="uni1EE4" unicode="&#x1ee4;" horiz-adv-x="495" 
d="M114.5 35q-45.5 46 -45.5 133v488h71v-487q0 -56 27.5 -85.5t80.5 -29.5q52 0 79.5 29.5t27.5 85.5v487h71v-488q0 -88 -45.5 -133.5t-132.5 -45.5q-88 0 -133.5 46zM212.5 -172q-14.5 14 -14.5 36t14.5 36t35.5 14q22 0 36 -14t14 -36t-14 -36t-36 -14q-21 0 -35.5 14z
" />
    <glyph glyph-name="uni1EE5" unicode="&#x1ee5;" horiz-adv-x="459" 
d="M393 494v-494h-60l-4 42q-21 -25 -51.5 -39t-66.5 -14q-72 0 -110.5 40.5t-38.5 114.5v350h69v-339q0 -50 23 -75.5t72 -25.5q30 0 56.5 15t41.5 41v384h69zM211.5 -172q-14.5 14 -14.5 36t14.5 36t35.5 14q22 0 36 -14t14 -36t-14 -36t-36 -14q-21 0 -35.5 14z" />
    <glyph glyph-name="Ygrave" unicode="&#x1ef2;" horiz-adv-x="454" 
d="M429 645l-166 -369v-276h-72v276l-166 369v11h69l133 -295l133 295h69v-11zM97 855l260 -66v-62l-260 66v62z" />
    <glyph glyph-name="ygrave" unicode="&#x1ef3;" horiz-adv-x="464" 
d="M435 494v-11l-185 -550q-19 -58 -49 -80.5t-86 -22.5h-49v64h43q33 0 48.5 12t26.5 48l15 49l-170 480v11h72l134 -395l128 395h72zM102 693l260 -66v-62l-260 66v62z" />
    <glyph glyph-name="uni1EF8" unicode="&#x1ef8;" horiz-adv-x="454" 
d="M429 645l-166 -369v-276h-72v276l-166 369v11h69l133 -295l133 295h69v-11zM229 761q-15 5 -30.5 9.5t-30.5 4.5q-35 0 -71 -21v60q37 22 72 22q15 0 30.5 -4.5t30.5 -9.5q40 -14 65 -14q32 0 62 15v-61q-30 -15 -62 -15q-26 0 -66 14z" />
    <glyph glyph-name="uni1EF9" unicode="&#x1ef9;" horiz-adv-x="464" 
d="M435 494v-11l-185 -550q-19 -58 -49 -80.5t-86 -22.5h-49v64h43q33 0 48.5 12t26.5 48l15 49l-170 480v11h72l134 -395l128 395h72zM234 599q-15 5 -30.5 9.5t-30.5 4.5q-35 0 -71 -21v60q37 22 72 22q15 0 30.5 -4.5t30.5 -9.5q40 -14 65 -14q32 0 62 15v-61
q-30 -15 -62 -15q-26 0 -66 14z" />
    <glyph glyph-name="uni2009" unicode="&#x2009;" horiz-adv-x="115" 
 />
    <glyph glyph-name="uni2010" unicode="&#x2010;" horiz-adv-x="334" 
d="M271 308v-63h-208v63h208z" />
    <glyph glyph-name="uni2011" unicode="&#x2011;" horiz-adv-x="334" 
d="M271 308v-63h-208v63h208z" />
    <glyph glyph-name="endash" unicode="&#x2013;" horiz-adv-x="371" 
d="M324 308v-63h-277v63h277z" />
    <glyph glyph-name="emdash" unicode="&#x2014;" horiz-adv-x="748" 
d="M665 309v-63h-583v63h583z" />
    <glyph glyph-name="uni2015" unicode="&#x2015;" horiz-adv-x="748" 
d="M665 309v-63h-583v63h583z" />
    <glyph glyph-name="quoteleft" unicode="&#x2018;" horiz-adv-x="284" 
d="M85 461l69 235h63l-53 -246h-79v11z" />
    <glyph glyph-name="quoteright" unicode="&#x2019;" horiz-adv-x="284" 
d="M199 698v-11l-69 -235h-63l53 246h79z" />
    <glyph glyph-name="quotesinglbase" unicode="&#x201a;" horiz-adv-x="284" 
d="M199 113v-11l-69 -235h-63l53 246h79z" />
    <glyph glyph-name="quotedblleft" unicode="&#x201c;" horiz-adv-x="486" 
d="M85 461l69 235h62l-53 -246h-78v11zM288 461l68 235h63l-53 -246h-78v11z" />
    <glyph glyph-name="quotedblright" unicode="&#x201d;" horiz-adv-x="486" 
d="M198 698v-11l-68 -235h-63l53 246h78zM401 698v-11l-69 -235h-62l53 246h78z" />
    <glyph glyph-name="quotedblbase" unicode="&#x201e;" horiz-adv-x="486" 
d="M198 113v-11l-68 -235h-63l53 246h78zM401 113v-11l-69 -235h-62l53 246h78z" />
    <glyph glyph-name="dagger" unicode="&#x2020;" horiz-adv-x="351" 
d="M329 492h-120v-262h-66v262h-121v64h121v128h66v-128h120v-64z" />
    <glyph glyph-name="daggerdbl" unicode="&#x2021;" horiz-adv-x="351" 
d="M208 500v-94h121v-60h-121v-124h-64v124h-122v60h122v94h-122v61h122v123h64v-123h121v-61h-121z" />
    <glyph glyph-name="bullet" unicode="&#x2022;" horiz-adv-x="440" 
d="M143 224q-31 30 -31 78t31 77.5t77 29.5q47 0 77.5 -29.5t30.5 -77.5t-31 -78t-77 -30t-77 30z" />
    <glyph glyph-name="ellipsis" unicode="&#x2026;" horiz-adv-x="776" 
d="M108 2.5q-14 13.5 -14 34.5t13.5 34.5t34.5 13.5t34.5 -13t13.5 -35q0 -21 -13.5 -34.5t-34.5 -13.5q-20 0 -34 13.5zM354 2.5q-14 13.5 -14 34.5t13.5 34.5t34.5 13.5t34.5 -13t13.5 -35q0 -21 -13.5 -34.5t-34.5 -13.5q-20 0 -34 13.5zM600 2.5q-14 13.5 -14 34.5
t13.5 34.5t34.5 13.5t34.5 -13t13.5 -35q0 -21 -13.5 -34.5t-34.5 -13.5q-20 0 -34 13.5z" />
    <glyph glyph-name="perthousand" unicode="&#x2030;" horiz-adv-x="1052" 
d="M73 379q-32 32 -32 89v74q0 57 32.5 89t89.5 32t89 -31.5t32 -89.5v-74q0 -57 -31.5 -89t-89.5 -32t-90 32zM230 474v61q0 36 -17 55t-50 19t-50 -19t-17 -55v-61q0 -73 67 -73t67 73zM473 26q-32 32 -32 89v74q0 57 32.5 89t89.5 32t89 -31.5t32 -89.5v-74
q0 -57 -31.5 -89t-89.5 -32t-90 32zM630 121v61q0 36 -17 55t-50 19t-50 -19t-17 -55v-61q0 -73 67 -73t67 73zM549 656h60v-11l-432 -645h-60v11zM799 26q-32 32 -32 89v74q0 57 32.5 89t89.5 32t89 -31.5t32 -89.5v-74q0 -57 -31.5 -89t-89.5 -32t-90 32zM956 121v61
q0 36 -17 55t-50 19t-50 -19t-17 -55v-61q0 -73 67 -73t67 73z" />
    <glyph glyph-name="minute" unicode="&#x2032;" horiz-adv-x="284" 
d="M199 656v-11l-69 -242h-63l53 253h79z" />
    <glyph glyph-name="second" unicode="&#x2033;" horiz-adv-x="486" 
d="M198 656v-11l-68 -242h-63l53 253h78zM401 656v-11l-69 -242h-62l53 253h78z" />
    <glyph glyph-name="guilsinglleft" unicode="&#x2039;" horiz-adv-x="338" 
d="M77 282l116 212h72v-12l-115 -206l115 -205v-11h-72l-116 211v11z" />
    <glyph glyph-name="guilsinglright" unicode="&#x203a;" horiz-adv-x="338" 
d="M145 62h-72v12l115 206l-115 205v11h72l116 -211v-11z" />
    <glyph glyph-name="fraction" unicode="&#x2044;" horiz-adv-x="334" 
d="M353 656h60v-11l-432 -645h-60v11z" />
    <glyph glyph-name="uni2070" unicode="&#x2070;" horiz-adv-x="333" 
d="M75.5 367.5q-34.5 31.5 -34.5 83.5v197q0 53 34 84.5t92 31.5q57 0 91 -31.5t34 -84.5v-197q0 -52 -34 -83.5t-91 -31.5t-91.5 31.5zM214.5 408.5q17.5 17.5 17.5 47.5v187q0 31 -17.5 48.5t-47.5 17.5q-31 0 -48 -17.5t-17 -48.5v-187q0 -31 17 -48t48 -17
q30 0 47.5 17.5z" />
    <glyph glyph-name="uni2074" unicode="&#x2074;" horiz-adv-x="333" 
d="M22 432v55q26 65 41.5 129t24.5 141h59v-9q-16 -139 -63 -261h125v197h57v-197h63v-55h-63v-89h-57v89h-187z" />
    <glyph glyph-name="uni2075" unicode="&#x2075;" horiz-adv-x="333" 
d="M79.5 365.5q-34.5 29.5 -34.5 81.5v6h59v-6q0 -26 18.5 -41t50.5 -15q33 0 51.5 15.5t18.5 42.5v44q0 27 -19 42.5t-52 15.5q-27 0 -43.5 -12t-20.5 -34h-59l14 252h226v-56h-174l-7 -124q14 14 34.5 21.5t45.5 7.5q53 0 83.5 -28.5t30.5 -78.5v-51q0 -53 -34 -82.5
t-95 -29.5q-59 0 -93.5 29.5z" />
    <glyph glyph-name="uni2076" unicode="&#x2076;" horiz-adv-x="333" 
d="M78 367.5q-35 31.5 -35 84.5v194q0 55 35 86.5t95 31.5t93.5 -29.5t33.5 -82.5v-6h-61v6q0 28 -17 43t-49 15t-50 -16.5t-18 -45.5v-73q30 28 78 28q53 0 85 -29t32 -77v-47q0 -54 -34 -84t-93 -30q-60 0 -95 31.5zM221.5 405.5q17.5 16.5 17.5 44.5v41q0 27 -17.5 42
t-49.5 15q-22 0 -39 -8t-28 -22v-68q0 -28 18 -44.5t50 -16.5q31 0 48.5 16.5z" />
    <glyph glyph-name="uni2077" unicode="&#x2077;" horiz-adv-x="333" 
d="M140 522.5q33 87.5 96 178.5h-215v55h275v-55q-60 -89 -93.5 -178t-33.5 -160v-20h-62v20q0 72 33 159.5z" />
    <glyph glyph-name="uni2078" unicode="&#x2078;" horiz-adv-x="333" 
d="M72 363.5q-35 27.5 -35 75.5v34q0 28 16 50t45 33q-55 21 -55 80v30q0 46 32.5 72t91.5 26q58 0 90.5 -26t32.5 -72v-30q0 -59 -54 -80q28 -11 44 -33t16 -50v-34q0 -48 -34.5 -75.5t-94.5 -27.5t-95 27.5zM234 636v21q0 28 -17.5 42.5t-49.5 14.5q-33 0 -50.5 -14.5
t-17.5 -42.5v-21q0 -27 17.5 -41t50.5 -14q67 0 67 55zM218 401.5q19 15.5 19 42.5v27q0 26 -19 41.5t-51 15.5t-51.5 -16t-19.5 -41v-27q0 -26 19.5 -42t51.5 -16t51 15.5z" />
    <glyph glyph-name="uni2079" unicode="&#x2079;" horiz-adv-x="333" 
d="M66.5 364.5q-33.5 29.5 -33.5 83.5v6h61v-6q0 -28 17 -43.5t49 -15.5t50 16.5t18 45.5v73q-15 -13 -35 -20.5t-43 -7.5q-53 0 -85 29t-32 78v47q0 53 34 83.5t93 30.5q60 0 95 -31.5t35 -84.5v-195q0 -54 -35 -86t-95 -32t-93.5 29.5zM200 559q17 8 28 22v69
q0 28 -18.5 44t-49.5 16t-48.5 -16.5t-17.5 -44.5v-41q0 -27 17.5 -42t49.5 -15q22 0 39 8z" />
    <glyph glyph-name="uni2080" unicode="&#x2080;" horiz-adv-x="333" 
d="M75.5 -75.5q-34.5 31.5 -34.5 83.5v197q0 53 34 84.5t92 31.5q57 0 91 -31.5t34 -84.5v-197q0 -52 -34 -83.5t-91 -31.5t-91.5 31.5zM214.5 -34.5q17.5 17.5 17.5 47.5v187q0 31 -17.5 48.5t-47.5 17.5q-31 0 -48 -17.5t-17 -48.5v-187q0 -31 17 -48t48 -17
q30 0 47.5 17.5z" />
    <glyph glyph-name="uni2081" unicode="&#x2081;" horiz-adv-x="333" 
d="M159 -45v278q-17 -16 -51 -16h-78v55h80q23 0 36 11t13 30h61v-358h107v-55h-297v55h129z" />
    <glyph glyph-name="uni2082" unicode="&#x2082;" horiz-adv-x="333" 
d="M146 61q48 49 66 79t18 58v7q0 28 -18 44.5t-49 16.5q-33 0 -51 -16t-18 -43v-16h-58v17q0 54 33.5 83.5t94.5 29.5t93.5 -28.5t32.5 -82.5v-7q0 -40 -20.5 -78t-72.5 -91l-76 -79h180v-55h-257v55z" />
    <glyph glyph-name="uni2083" unicode="&#x2083;" horiz-adv-x="333" 
d="M64.5 -77q-35.5 30 -35.5 80v14h59v-10q0 -27 19.5 -43t52.5 -16q32 0 51.5 16.5t19.5 43.5v36q0 27 -20 42t-55 15h-58v38l119 119h-179v56h253v-56l-107 -107l16 -2q44 -6 67.5 -30.5t23.5 -66.5v-49q0 -50 -36 -80t-95 -30q-60 0 -95.5 30z" />
    <glyph glyph-name="uni2084" unicode="&#x2084;" horiz-adv-x="333" 
d="M22 -11v55q26 65 41.5 129t24.5 141h59v-9q-16 -139 -63 -261h125v197h57v-197h63v-55h-63v-89h-57v89h-187z" />
    <glyph glyph-name="uni2085" unicode="&#x2085;" horiz-adv-x="333" 
d="M79.5 -77.5q-34.5 29.5 -34.5 81.5v6h59v-6q0 -26 18.5 -41t50.5 -15q33 0 51.5 15.5t18.5 42.5v44q0 27 -19 42.5t-52 15.5q-27 0 -43.5 -12t-20.5 -34h-59l14 252h226v-56h-174l-7 -124q14 14 34.5 21.5t45.5 7.5q53 0 83.5 -28.5t30.5 -78.5v-51q0 -53 -34 -82.5
t-95 -29.5q-59 0 -93.5 29.5z" />
    <glyph glyph-name="uni2086" unicode="&#x2086;" horiz-adv-x="333" 
d="M78 -75.5q-35 31.5 -35 84.5v194q0 55 35 86.5t95 31.5t93.5 -29.5t33.5 -82.5v-6h-61v6q0 28 -17 43t-49 15t-50 -16.5t-18 -45.5v-73q30 28 78 28q53 0 85 -29t32 -77v-47q0 -54 -34 -84t-93 -30q-60 0 -95 31.5zM221.5 -37.5q17.5 16.5 17.5 44.5v41q0 27 -17.5 42
t-49.5 15q-22 0 -39 -8t-28 -22v-68q0 -28 18 -44.5t50 -16.5q31 0 48.5 16.5z" />
    <glyph glyph-name="uni2087" unicode="&#x2087;" horiz-adv-x="333" 
d="M140 79.5q33 87.5 96 178.5h-215v55h275v-55q-60 -89 -93.5 -178t-33.5 -160v-20h-62v20q0 72 33 159.5z" />
    <glyph glyph-name="uni2088" unicode="&#x2088;" horiz-adv-x="333" 
d="M72 -79.5q-35 27.5 -35 75.5v34q0 28 16 50t45 33q-55 21 -55 80v30q0 46 32.5 72t91.5 26q58 0 90.5 -26t32.5 -72v-30q0 -59 -54 -80q28 -11 44 -33t16 -50v-34q0 -48 -34.5 -75.5t-94.5 -27.5t-95 27.5zM234 193v21q0 28 -17.5 42.5t-49.5 14.5q-33 0 -50.5 -14.5
t-17.5 -42.5v-21q0 -27 17.5 -41t50.5 -14q67 0 67 55zM218 -41.5q19 15.5 19 42.5v27q0 26 -19 41.5t-51 15.5t-51.5 -16t-19.5 -41v-27q0 -26 19.5 -42t51.5 -16t51 15.5z" />
    <glyph glyph-name="uni2089" unicode="&#x2089;" horiz-adv-x="333" 
d="M66.5 -78.5q-33.5 29.5 -33.5 83.5v6h61v-6q0 -28 17 -43.5t49 -15.5t50 16.5t18 45.5v73q-15 -13 -35 -20.5t-43 -7.5q-53 0 -85 29t-32 78v47q0 53 34 83.5t93 30.5q60 0 95 -31.5t35 -84.5v-195q0 -54 -35 -86t-95 -32t-93.5 29.5zM200 116q17 8 28 22v69
q0 28 -18.5 44t-49.5 16t-48.5 -16.5t-17.5 -44.5v-41q0 -27 17.5 -42t49.5 -15q22 0 39 8z" />
    <glyph glyph-name="Euro" unicode="&#x20ac;" horiz-adv-x="490" 
d="M386 418v71q0 113 -104 113q-53 0 -81 -28.5t-28 -83.5v-51h148v-61h-148v-102h148v-61h-148v-51q0 -54 27 -82t79 -28q51 0 79 29.5t28 83.5v70h69v-71q0 -87 -44 -132t-129 -45t-132 45t-47 128v53h-97v61h97v102h-97v61h97v55q0 82 47 127.5t132 45.5
q84 0 128.5 -45.5t44.5 -133.5v-70h-69z" />
    <glyph glyph-name="uni20AE" unicode="&#x20ae;" horiz-adv-x="490" 
d="M281 590v-185l148 42v-65l-148 -41v-109l148 41v-62l-148 -41v-170h-71v153l-147 -42v62l147 42v109l-147 -42v64l147 42v202h-179v66h428v-66h-178z" />
    <glyph glyph-name="uni20B4" unicode="&#x20b4;" horiz-adv-x="490" 
d="M320 359l-95 -79h224v-60h-288q-29 -35 -29 -73q0 -43 30 -68.5t82 -25.5q50 0 82 26t32 66v14h68v-14q0 -70 -50 -113t-131 -43q-80 0 -130.5 41.5t-50.5 107.5q0 42 24 82h-47v60h97q23 20 22 19l97 80h-216v60h280q16 19 22.5 36.5t6.5 38.5q0 40 -27.5 64.5
t-72.5 24.5q-47 0 -77 -25.5t-30 -65.5v-15h-68v15q0 69 49 112t126 43q74 0 121 -40.5t47 -103.5q0 -43 -24 -84h55v-60h-106q1 1 -23 -20z" />
    <glyph glyph-name="uni20B8" unicode="&#x20b8;" horiz-adv-x="490" 
d="M452 656v-62h-415v62h415zM37 432v62h415v-62h-172v-432h-71v432h-172z" />
    <glyph glyph-name="uni20B9" unicode="&#x20b9;" horiz-adv-x="490" 
d="M353 595q31 -37 34 -100h83v-62h-84q-7 -74 -57.5 -116t-135.5 -42h-73l319 -264v-11h-82l-331 275v58h164q58 0 91 25.5t37 74.5h-292v62h293q-2 66 -33 100h-260v61h444v-61h-117z" />
    <glyph glyph-name="uni20BA" unicode="&#x20ba;" horiz-adv-x="490" 
d="M466 231v-47q0 -86 -50 -135t-137 -49h-176v229l-97 -40v68l97 39v113l-97 -39v67l97 39v180h71v-154l195 80v-68l-195 -80v-112l195 80v-68l-195 -80v-189h104q54 0 85.5 32t31.5 87v47h71z" />
    <glyph glyph-name="uni20BD" unicode="&#x20bd;" horiz-adv-x="490" 
d="M427.5 612q46.5 -44 46.5 -127v-20q0 -82 -46.5 -125.5t-134.5 -43.5h-114v-101h217v-62h-217v-133h-70v133h-98v62h98v101h-98v62h98v298h184q88 0 134.5 -44zM403 485q0 108 -114 108h-110v-235h110q114 0 114 107v20z" />
    <glyph glyph-name="uni20BF" unicode="&#x20bf;" horiz-adv-x="490" 
d="M424 284q22 -35 22 -83v-18q0 -56 -27 -94.5t-75 -52.5v-92h-62v84h-82v-84h-62v84h-61v601h61v88h62v-88h76h6v88h62v-98q45 -15 68.5 -50t23.5 -87v-18q0 -46 -19 -79t-55 -50q40 -16 62 -51zM263 569h-120v-202h121q106 0 106 94v18q0 90 -107 90zM379 200
q0 49 -27 75t-77 26h-132v-213h130q51 0 78.5 24.5t27.5 70.5v17z" />
    <glyph glyph-name="uni2113" unicode="&#x2113;" horiz-adv-x="486" 
d="M347 172h69l-2 -19q-8 -80 -49.5 -122t-114.5 -42q-70 0 -107.5 36.5t-37.5 103.5q0 9 2 31l6 51l-99 -59v69l108 65l26 212q21 169 170 169q64 0 101 -34.5t37 -95.5q0 -67 -41.5 -120t-139.5 -113l-88 -54l-11 -90q-1 -7 -1 -21q0 -41 20.5 -63.5t57.5 -22.5
q41 0 64.5 26.5t28.5 78.5zM197 329l63 42q72 47 99.5 81.5t27.5 76.5q0 34 -19.5 54t-52.5 20q-42 0 -67 -27t-31 -79z" />
    <glyph glyph-name="uni2116" unicode="&#x2116;" horiz-adv-x="855" 
d="M749 631q37 -36 37 -94v-16q0 -57 -37 -93.5t-96 -36.5q-58 0 -95 36.5t-37 93.5v16q0 57 37 93.5t95 36.5q59 0 96 -36zM362 656h68v-656h-75l-218 507v-507h-68v656h75l218 -511v511zM731 537q0 34 -21.5 55.5t-56.5 21.5q-34 0 -55.5 -21.5t-21.5 -55.5v-16
q0 -34 21.5 -55.5t55.5 -21.5q35 0 56.5 21.5t21.5 55.5v16zM536 266h234v-59h-234v59z" />
    <glyph glyph-name="trademark" unicode="&#x2122;" horiz-adv-x="542" 
d="M14 656h196v-44h-75v-265h-47v265h-74v44zM488 347h-43v220l-63 -220h-33l-63 222v-222h-43v309h57l66 -226l65 226h57v-309z" />
    <glyph glyph-name="uni2126" unicode="&#x2126;" horiz-adv-x="512" 
d="M417.5 170q-26.5 -44 -74.5 -62v-43h101v-65h-160v159q89 18 89 120v197q0 59 -31 92.5t-86 33.5t-86 -33.5t-31 -92.5v-197q0 -51 23 -82t67 -38v-159h-161v65h101v44q-48 17 -74.5 61t-26.5 106v203q0 87 51 137.5t137 50.5t137 -50.5t51 -137.5v-203q0 -62 -26.5 -106
z" />
    <glyph glyph-name="estimated" unicode="&#x212e;" horiz-adv-x="758" 
d="M134 323v-215q41 -50 103.5 -77t141.5 -27q93 0 161 37.5t104 108.5h41q-42 -75 -122.5 -117.5t-183.5 -42.5t-181.5 41t-122 115t-43.5 171v21q0 97 43.5 171.5t122 115.5t181.5 41t181.5 -41t122 -115.5t43.5 -171.5v-15h-592zM237 624.5q-63 -27.5 -104 -78.5v-206
h489v207q-41 51 -103 78t-140 27q-79 0 -142 -27.5z" />
    <glyph glyph-name="oneeighth" unicode="&#x215b;" horiz-adv-x="952" 
d="M159 298v278q-17 -16 -51 -16h-78v55h80q23 0 36 11t13 30h61v-358h107v-55h-297v55h129zM686 656h60v-11l-432 -645h-60v11zM691 20.5q-35 27.5 -35 75.5v34q0 28 16 50t45 33q-55 21 -55 80v30q0 46 32.5 72t91.5 26q58 0 90.5 -26t32.5 -72v-30q0 -59 -54 -80
q28 -11 44 -33t16 -50v-34q0 -48 -34.5 -75.5t-94.5 -27.5t-95 27.5zM853 293v21q0 28 -17.5 42.5t-49.5 14.5q-33 0 -50.5 -14.5t-17.5 -42.5v-21q0 -27 17.5 -41t50.5 -14q67 0 67 55zM837 58.5q19 15.5 19 42.5v27q0 26 -19 41.5t-51 15.5t-51.5 -16t-19.5 -41v-27
q0 -26 19.5 -42t51.5 -16t51 15.5z" />
    <glyph glyph-name="threeeighths" unicode="&#x215c;" horiz-adv-x="918" 
d="M64.5 266q-35.5 30 -35.5 80v14h59v-10q0 -27 19.5 -43t52.5 -16q32 0 51.5 16.5t19.5 43.5v36q0 27 -20 42t-55 15h-58v38l119 119h-179v56h253v-56l-107 -107l16 -2q44 -6 67.5 -30.5t23.5 -66.5v-49q0 -50 -36 -80t-95 -30q-60 0 -95.5 30zM652 656h60v-11l-432 -645
h-60v11zM657 20.5q-35 27.5 -35 75.5v34q0 28 16 50t45 33q-55 21 -55 80v30q0 46 32.5 72t91.5 26q58 0 90.5 -26t32.5 -72v-30q0 -59 -54 -80q28 -11 44 -33t16 -50v-34q0 -48 -34.5 -75.5t-94.5 -27.5t-95 27.5zM819 293v21q0 28 -17.5 42.5t-49.5 14.5
q-33 0 -50.5 -14.5t-17.5 -42.5v-21q0 -27 17.5 -41t50.5 -14q67 0 67 55zM803 58.5q19 15.5 19 42.5v27q0 26 -19 41.5t-51 15.5t-51.5 -16t-19.5 -41v-27q0 -26 19.5 -42t51.5 -16t51 15.5z" />
    <glyph glyph-name="fiveeighths" unicode="&#x215d;" horiz-adv-x="918" 
d="M79.5 265.5q-34.5 29.5 -34.5 81.5v6h59v-6q0 -26 18.5 -41t50.5 -15q33 0 51.5 15.5t18.5 42.5v44q0 27 -19 42.5t-52 15.5q-27 0 -43.5 -12t-20.5 -34h-59l14 252h226v-56h-174l-7 -124q14 14 34.5 21.5t45.5 7.5q53 0 83.5 -28.5t30.5 -78.5v-51q0 -53 -34 -82.5
t-95 -29.5q-59 0 -93.5 29.5zM652 656h60v-11l-432 -645h-60v11zM657 20.5q-35 27.5 -35 75.5v34q0 28 16 50t45 33q-55 21 -55 80v30q0 46 32.5 72t91.5 26q58 0 90.5 -26t32.5 -72v-30q0 -59 -54 -80q28 -11 44 -33t16 -50v-34q0 -48 -34.5 -75.5t-94.5 -27.5t-95 27.5z
M819 293v21q0 28 -17.5 42.5t-49.5 14.5q-33 0 -50.5 -14.5t-17.5 -42.5v-21q0 -27 17.5 -41t50.5 -14q67 0 67 55zM803 58.5q19 15.5 19 42.5v27q0 26 -19 41.5t-51 15.5t-51.5 -16t-19.5 -41v-27q0 -26 19.5 -42t51.5 -16t51 15.5z" />
    <glyph glyph-name="seveneighths" unicode="&#x215e;" horiz-adv-x="883" 
d="M140 422.5q33 87.5 96 178.5h-215v55h275v-55q-60 -89 -93.5 -178t-33.5 -160v-20h-62v20q0 72 33 159.5zM617 656h60v-11l-432 -645h-60v11zM622 20.5q-35 27.5 -35 75.5v34q0 28 16 50t45 33q-55 21 -55 80v30q0 46 32.5 72t91.5 26q58 0 90.5 -26t32.5 -72v-30
q0 -59 -54 -80q28 -11 44 -33t16 -50v-34q0 -48 -34.5 -75.5t-94.5 -27.5t-95 27.5zM784 293v21q0 28 -17.5 42.5t-49.5 14.5q-33 0 -50.5 -14.5t-17.5 -42.5v-21q0 -27 17.5 -41t50.5 -14q67 0 67 55zM768 58.5q19 15.5 19 42.5v27q0 26 -19 41.5t-51 15.5t-51.5 -16
t-19.5 -41v-27q0 -26 19.5 -42t51.5 -16t51 15.5z" />
    <glyph glyph-name="arrowleft" unicode="&#x2190;" horiz-adv-x="734" 
d="M660 257h-464l209 -208v-15h-87l-255 255v13l255 255h87v-14l-210 -210h465v-76z" />
    <glyph glyph-name="arrowup" unicode="&#x2191;" horiz-adv-x="734" 
d="M634 341v-88h-13l-215 215v-454h-76v455l-216 -216h-14v88l261 261h13z" />
    <glyph glyph-name="arrowright" unicode="&#x2192;" horiz-adv-x="734" 
d="M671 302v-13l-255 -255h-87v15l209 208h-464v76h465l-210 210v14h87z" />
    <glyph glyph-name="arrowdown" unicode="&#x2193;" horiz-adv-x="734" 
d="M634 339v-88l-260 -261h-13l-261 261v88h14l216 -217v456h76v-455l215 216h13z" />
    <glyph glyph-name="uni2196" unicode="&#x2196;" horiz-adv-x="734" 
d="M558 69l-339 338l1 -304h-10l-60 59v361l9 9h359l60 -60v-10h-306l339 -339z" />
    <glyph glyph-name="uni2197" unicode="&#x2197;" horiz-adv-x="734" 
d="M584 523v-361l-60 -59h-10l1 305l-339 -339l-53 54l338 339h-305v10l60 60h359z" />
    <glyph glyph-name="uni2198" unicode="&#x2198;" horiz-adv-x="734" 
d="M584 430v-361l-9 -9h-359l-60 60v10h306l-339 339l53 54l339 -338l-1 304h10z" />
    <glyph glyph-name="uni2199" unicode="&#x2199;" horiz-adv-x="734" 
d="M272 130h306v-10l-60 -60h-359l-9 9v361l60 59h10l-1 -304l339 338l53 -54z" />
    <glyph glyph-name="uni21E1" unicode="&#x21e1;" horiz-adv-x="734" 
d="M339.5 526.5q-11.5 11.5 -11.5 26.5q0 16 11.5 28t27.5 12q17 0 28.5 -11.5t11.5 -28.5q0 -15 -12 -26.5t-28 -11.5t-27.5 11.5zM225.5 414.5q-11.5 11.5 -11.5 27.5t11 27.5t28 11.5q16 0 27.5 -11.5t11.5 -27.5t-11 -27.5t-28 -11.5q-16 0 -27.5 11.5zM454.5 414.5
q-11.5 11.5 -11.5 27.5t11.5 27.5t27.5 11.5t27.5 -11.5t11.5 -27.5t-11.5 -27.5t-27.5 -11.5t-27.5 11.5zM339.5 321.5q-11.5 11.5 -11.5 27.5t11.5 27.5t27.5 11.5t28 -11.5t12 -27.5t-11.5 -27.5t-28.5 -11.5q-16 0 -27.5 11.5zM110.5 304.5q-11.5 11.5 -11.5 27.5
t11.5 27.5t27.5 11.5t27.5 -11.5t11.5 -27.5t-11 -27.5t-28 -11.5q-16 0 -27.5 11.5zM569.5 304.5q-11.5 11.5 -11.5 27.5t11.5 27.5t27.5 11.5t27.5 -11.5t11.5 -27.5t-11.5 -27.5t-27.5 -11.5t-27.5 11.5zM339.5 167q-11.5 12 -11.5 28t11.5 27.5t27.5 11.5t28 -11.5
t12 -27.5t-11.5 -28t-28.5 -12q-16 0 -27.5 12zM339.5 13.5q-11.5 11.5 -11.5 27.5t11.5 28t27.5 12t28 -12t12 -28t-11.5 -27.5t-28.5 -11.5q-16 0 -27.5 11.5z" />
    <glyph glyph-name="uni21E3" unicode="&#x21e3;" horiz-adv-x="734" 
d="M395.5 571.5q11.5 -11.5 11.5 -27.5t-12 -28t-28 -12t-27.5 12t-11.5 28t11.5 27.5t27.5 11.5q17 0 28.5 -11.5zM395.5 418.5q11.5 -11.5 11.5 -28.5q0 -16 -12 -27.5t-28 -11.5t-27.5 11.5t-11.5 27.5t11.5 28t27.5 12q17 0 28.5 -11.5zM166 281q11 -11 11 -28
q0 -16 -11.5 -27.5t-27.5 -11.5t-27.5 11.5t-11.5 27.5q0 17 11.5 28t27.5 11q17 0 28 -11zM624.5 280.5q11.5 -11.5 11.5 -27.5t-11.5 -27.5t-27.5 -11.5t-27.5 11.5t-11.5 27.5t11.5 27.5t27.5 11.5t27.5 -11.5zM395.5 263.5q11.5 -11.5 11.5 -27.5t-12 -27.5t-28 -11.5
t-27.5 11.5t-11.5 27.5t11.5 27.5t27.5 11.5q17 0 28.5 -11.5zM281 171q11 -11 11 -28q0 -16 -11.5 -27.5t-27.5 -11.5q-17 0 -28 11.5t-11 27.5q0 17 11.5 28t27.5 11q17 0 28 -11zM509.5 170.5q11.5 -11.5 11.5 -27.5t-11.5 -27.5t-27.5 -11.5t-27.5 11.5t-11.5 27.5
q0 17 11.5 28t27.5 11t27.5 -11.5zM395 58.5q12 -11.5 12 -26.5q0 -16 -11.5 -28t-28.5 -12q-16 0 -27.5 12t-11.5 28q0 15 11.5 26.5t27.5 11.5t28 -11.5z" />
    <glyph glyph-name="partialdiff" unicode="&#x2202;" horiz-adv-x="478" 
d="M389.5 622.5q46.5 -44.5 46.5 -127.5q0 -20 -3 -41l-36 -293q-11 -84 -57 -128t-125 -44q-78 0 -126 43t-48 112q0 14 1 22l10 87q8 71 55 112t120 41q79 0 123 -49l13 106q2 20 2 29q0 53 -28 81.5t-82 28.5q-38 0 -65 -18t-32 -46l-1 -7h-72l1 7q9 60 55 94.5t117 34.5
q85 0 131.5 -44.5zM290.5 81.5q28.5 27.5 35.5 78.5l15 119q-15 30 -43 46t-64 16q-47 0 -77 -26.5t-35 -72.5l-9 -75q-1 -5 -1 -16q0 -43 28.5 -70t74.5 -27q47 0 75.5 27.5z" />
    <glyph glyph-name="uni2206" unicode="&#x2206;" horiz-adv-x="481" 
d="M444 65v-65h-407v65l162 591h82zM103 65h273l-136 519z" />
    <glyph glyph-name="product" unicode="&#x220f;" horiz-adv-x="609" 
d="M10 590v66h589v-66h-124v-689h-71v689h-199v-689h-71v689h-124z" />
    <glyph glyph-name="summation" unicode="&#x2211;" horiz-adv-x="429" 
d="M398 591h-274l184 -297v-32l-184 -296h274v-65h-350v66l194 311l-194 312v66h350v-65z" />
    <glyph glyph-name="minus" unicode="&#x2212;" horiz-adv-x="490" 
d="M447 361v-66h-405v66h405z" />
    <glyph glyph-name="uni2215" unicode="&#x2215;" horiz-adv-x="485" 
d="M340 721h64v-13l-259 -773h-64v13z" />
    <glyph glyph-name="uni2219" unicode="&#x2219;" horiz-adv-x="284" 
d="M107.5 293.5q-13.5 13.5 -13.5 34.5t13.5 34.5t34.5 13.5t34.5 -13t13.5 -35t-13.5 -35t-34.5 -13t-34.5 13.5z" />
    <glyph glyph-name="radical" unicode="&#x221a;" horiz-adv-x="556" 
d="M556 593h-141l-188 -692h-71l-127 431v10h63l98 -344l174 658h192v-63z" />
    <glyph glyph-name="infinity" unicode="&#x221e;" horiz-adv-x="743" 
d="M669 498.5q42 -51.5 42 -140.5v-59q0 -89 -42 -140.5t-115 -51.5q-56 0 -92 28t-75 104l-15 30l-16 -30q-39 -76 -75 -104t-92 -28q-73 0 -115 51.5t-42 140.5v59q0 89 42 140.5t115 51.5q43 0 72.5 -15.5t50 -42.5t44.5 -74l16 -29l15 29q26 48 47 75.5t49.5 42
t70.5 14.5q73 0 115 -51.5zM252.5 192.5q22.5 19.5 49.5 72.5l33 64l-33 63q-29 54 -50.5 73.5t-58.5 19.5q-43 0 -69 -34.5t-26 -92.5v-59q0 -58 25.5 -92t69.5 -34q37 0 59.5 19.5zM646 358q0 58 -26 92.5t-70 34.5q-36 0 -58 -19.5t-50 -73.5l-33 -63l33 -64
q28 -54 50 -73t58 -19q44 0 70 34t26 92v59z" />
    <glyph glyph-name="integral" unicode="&#x222b;" horiz-adv-x="342" 
d="M70 -35q67 0 67 70v505q0 127 127 127h53v-64h-45q-33 0 -50 -17.5t-17 -51.5v-506q0 -127 -126 -127h-54v64h45z" />
    <glyph glyph-name="approxequal" unicode="&#x2248;" horiz-adv-x="490" 
d="M300 381.5q-19 4.5 -53 14.5q-30 10 -51 15t-45 5q-41 0 -99 -24v66q54 23 99 23q24 0 44.5 -4.5t53.5 -14.5q28 -9 49 -14t44 -5q42 0 95 21v-66q-49 -21 -95 -21q-23 0 -42 4.5zM300 184.5q-19 4.5 -53 14.5q-30 10 -51 15t-45 5q-40 0 -99 -24v66q54 23 99 23
q24 0 44.5 -4.5t53.5 -14.5q28 -9 49 -14t44 -5q42 0 95 21v-66q-49 -21 -95 -21q-23 0 -42 4.5z" />
    <glyph glyph-name="notequal" unicode="&#x2260;" horiz-adv-x="490" 
d="M305 403l-52 -150h184v-66h-206l-50 -145h-65v11l46 134h-110v66h132l52 150h-184v66h206l50 145h65v-11l-46 -134h110v-66h-132z" />
    <glyph glyph-name="lessequal" unicode="&#x2264;" horiz-adv-x="490" 
d="M431 473l-309 -117l309 -118v-62h-10l-374 140v79l374 140h10v-62zM47 88h384v-65h-384v65z" />
    <glyph glyph-name="greaterequal" unicode="&#x2265;" horiz-adv-x="490" 
d="M443 395v-79l-374 -140h-10v62l309 118l-309 117v62h10zM59 88h384v-65h-384v65z" />
    <glyph glyph-name="uni2460" unicode="&#x2460;" horiz-adv-x="682" 
d="M177.5 22q-70.5 35 -109 98.5t-38.5 146.5v122q0 83 39 146.5t109.5 98.5t162.5 35q93 0 163.5 -35t109 -98.5t38.5 -146.5v-122q0 -83 -39 -146.5t-109.5 -98.5t-162.5 -35q-93 0 -163.5 35zM527.5 101.5q68.5 61.5 68.5 167.5v118q0 106 -68.5 167.5t-186.5 61.5
q-78 0 -135.5 -28t-88.5 -80t-31 -121v-118q0 -106 68.5 -167.5t186.5 -61.5t186.5 61.5zM334 177v278q-17 -16 -51 -16h-78v55h80q23 0 36 11t13 30h61v-358h107v-55h-297v55h129z" />
    <glyph glyph-name="uni2461" unicode="&#x2461;" horiz-adv-x="682" 
d="M177.5 22q-70.5 35 -109 98.5t-38.5 146.5v122q0 83 39 146.5t109.5 98.5t162.5 35q93 0 163.5 -35t109 -98.5t38.5 -146.5v-122q0 -83 -39 -146.5t-109.5 -98.5t-162.5 -35q-93 0 -163.5 35zM527.5 101.5q68.5 61.5 68.5 167.5v118q0 106 -68.5 167.5t-186.5 61.5
q-78 0 -135.5 -28t-88.5 -80t-31 -121v-118q0 -106 68.5 -167.5t186.5 -61.5t186.5 61.5zM320 283q48 51 66.5 80.5t18.5 56.5v7q0 28 -18.5 44.5t-49.5 16.5q-32 0 -50 -16t-18 -43v-16h-59v17q0 54 33.5 83.5t94.5 29.5t93.5 -28.5t32.5 -82.5v-7q0 -40 -20 -78t-72 -91
l-76 -79h180v-55h-258v55z" />
    <glyph glyph-name="uni2462" unicode="&#x2462;" horiz-adv-x="682" 
d="M177.5 22q-70.5 35 -109 98.5t-38.5 146.5v122q0 83 39 146.5t109.5 98.5t162.5 35q93 0 163.5 -35t109 -98.5t38.5 -146.5v-122q0 -83 -39 -146.5t-109.5 -98.5t-162.5 -35q-93 0 -163.5 35zM527.5 101.5q68.5 61.5 68.5 167.5v118q0 106 -68.5 167.5t-186.5 61.5
q-78 0 -135.5 -28t-88.5 -80t-31 -121v-118q0 -106 68.5 -167.5t186.5 -61.5t186.5 61.5zM242 145q-36 30 -36 80v14h60v-10q0 -27 19 -43t52 -16t52.5 16.5t19.5 43.5v36q0 27 -20 42t-56 15h-58v38l119 119h-178v56h252v-56l-107 -107l17 -2q44 -6 67 -30.5t23 -66.5v-49
q0 -50 -35.5 -80t-94.5 -30q-60 0 -96 30z" />
    <glyph glyph-name="uni2463" unicode="&#x2463;" horiz-adv-x="682" 
d="M177.5 22q-70.5 35 -109 98.5t-38.5 146.5v122q0 83 39 146.5t109.5 98.5t162.5 35q93 0 163.5 -35t109 -98.5t38.5 -146.5v-122q0 -83 -39 -146.5t-109.5 -98.5t-162.5 -35q-93 0 -163.5 35zM527.5 101.5q68.5 61.5 68.5 167.5v118q0 106 -68.5 167.5t-186.5 61.5
q-78 0 -135.5 -28t-88.5 -80t-31 -121v-118q0 -106 68.5 -167.5t186.5 -61.5t186.5 61.5zM187 211v55q26 65 41.5 129t24.5 141h59v-9q-16 -143 -62 -261h124v197h58v-197h62v-55h-62v-89h-58v89h-187z" />
    <glyph glyph-name="uni2464" unicode="&#x2464;" horiz-adv-x="682" 
d="M177.5 22q-70.5 35 -109 98.5t-38.5 146.5v122q0 83 39 146.5t109.5 98.5t162.5 35q93 0 163.5 -35t109 -98.5t38.5 -146.5v-122q0 -83 -39 -146.5t-109.5 -98.5t-162.5 -35q-93 0 -163.5 35zM527.5 101.5q68.5 61.5 68.5 167.5v118q0 106 -68.5 167.5t-186.5 61.5
q-78 0 -135.5 -28t-88.5 -80t-31 -121v-118q0 -106 68.5 -167.5t186.5 -61.5t186.5 61.5zM247.5 144.5q-34.5 29.5 -34.5 81.5v6h58v-6q0 -26 18.5 -41t50.5 -15q33 0 51.5 15.5t18.5 42.5v44q0 27 -19 42.5t-52 15.5q-27 0 -43.5 -12t-20.5 -34h-59l14 252h226v-56h-174
l-7 -124q14 14 34.5 21.5t45.5 7.5q53 0 84 -28.5t31 -78.5v-51q0 -53 -34 -82.5t-95 -29.5q-59 0 -93.5 29.5z" />
    <glyph glyph-name="uni2465" unicode="&#x2465;" horiz-adv-x="682" 
d="M177.5 22q-70.5 35 -109 98.5t-38.5 146.5v122q0 83 39 146.5t109.5 98.5t162.5 35q93 0 163.5 -35t109 -98.5t38.5 -146.5v-122q0 -83 -39 -146.5t-109.5 -98.5t-162.5 -35q-93 0 -163.5 35zM527.5 101.5q68.5 61.5 68.5 167.5v118q0 106 -68.5 167.5t-186.5 61.5
q-78 0 -135.5 -28t-88.5 -80t-31 -121v-118q0 -106 68.5 -167.5t186.5 -61.5t186.5 61.5zM247.5 146.5q-34.5 31.5 -34.5 84.5v194q0 55 34.5 86.5t94.5 31.5q61 0 94 -29.5t33 -82.5v-6h-60v6q0 28 -17.5 43t-49.5 15t-50 -16.5t-18 -45.5v-73q14 13 35 20.5t44 7.5
q53 0 84.5 -29t31.5 -77v-47q0 -54 -34 -84t-93 -30q-60 0 -94.5 31.5zM391 184.5q18 16.5 18 44.5v41q0 27 -18 42t-50 15q-21 0 -39 -8t-28 -22v-68q0 -28 18 -44.5t50 -16.5q31 0 49 16.5z" />
    <glyph glyph-name="uni2466" unicode="&#x2466;" horiz-adv-x="682" 
d="M177.5 22q-70.5 35 -109 98.5t-38.5 146.5v122q0 83 39 146.5t109.5 98.5t162.5 35q93 0 163.5 -35t109 -98.5t38.5 -146.5v-122q0 -83 -39 -146.5t-109.5 -98.5t-162.5 -35q-93 0 -163.5 35zM527.5 101.5q68.5 61.5 68.5 167.5v118q0 106 -68.5 167.5t-186.5 61.5
q-78 0 -135.5 -28t-88.5 -80t-31 -121v-118q0 -106 68.5 -167.5t186.5 -61.5t186.5 61.5zM323 301.5q33 87.5 95 178.5h-214v55h275v-55q-60 -89 -93.5 -178t-33.5 -160v-20h-62v20q0 72 33 159.5z" />
    <glyph glyph-name="uni2467" unicode="&#x2467;" horiz-adv-x="682" 
d="M177.5 22q-70.5 35 -109 98.5t-38.5 146.5v122q0 83 39 146.5t109.5 98.5t162.5 35q93 0 163.5 -35t109 -98.5t38.5 -146.5v-122q0 -83 -39 -146.5t-109.5 -98.5t-162.5 -35q-93 0 -163.5 35zM527.5 101.5q68.5 61.5 68.5 167.5v118q0 106 -68.5 167.5t-186.5 61.5
q-78 0 -135.5 -28t-88.5 -80t-31 -121v-118q0 -106 68.5 -167.5t186.5 -61.5t186.5 61.5zM246.5 142.5q-34.5 27.5 -34.5 75.5v34q0 28 16 50t45 33q-55 21 -55 80v30q0 46 32.5 72t91.5 26q58 0 90.5 -26t32.5 -72v-30q0 -58 -54 -80q28 -11 43.5 -33t15.5 -50v-34
q0 -48 -34.5 -75.5t-93.5 -27.5q-61 0 -95.5 27.5zM391 374q17 14 17 41v21q0 28 -17 42.5t-49 14.5q-33 0 -50.5 -14.5t-17.5 -42.5v-21q0 -27 17.5 -41t50.5 -14q32 0 49 14zM392.5 180.5q18.5 15.5 18.5 42.5v27q0 26 -19 41.5t-50 15.5q-32 0 -51.5 -15.5t-19.5 -41.5
v-27q0 -26 19 -42t52 -16q32 0 50.5 15.5z" />
    </font>
</defs>
</svg>
