<?xml version="1.0" standalone="no"?>
<!DOCTYPE svg PUBLIC "-//W3C//DTD SVG 1.1//EN" "http://www.w3.org/Graphics/SVG/1.1/DTD/svg11.dtd" >
<svg xmlns="http://www.w3.org/2000/svg" xmlns:xlink="http://www.w3.org/1999/xlink" version="1.1">
<metadata>
Created by FontForge 20170731 at Thu Jun 13 19:18:19 2019
 By Aleksey,,,
Copyright \(c\) 2019 by Nicky Laatz. All rights reserved.
</metadata>
<defs>
<font id="BonVivantSerifBold" horiz-adv-x="717" >
  <font-face 
    font-family="Bon Vivant Family Serif Bold"
    font-weight="400"
    font-stretch="normal"
    units-per-em="1000"
    panose-1="0 0 0 0 0 0 0 0 0 0"
    ascent="722"
    descent="-278"
    x-height="465"
    cap-height="696"
    bbox="-70 -290 1223 931"
    underline-thickness="50"
    underline-position="-225"
    unicode-range="U+0020-FB02"
  />
<missing-glyph horiz-adv-x="250" 
 />
    <glyph glyph-name=".notdef" horiz-adv-x="250" 
 />
    <glyph glyph-name="uni0000" horiz-adv-x="0" 
 />
    <glyph glyph-name="uni000D" horiz-adv-x="250" 
 />
    <glyph glyph-name="space" unicode=" " horiz-adv-x="229" 
 />
    <glyph glyph-name="exclam" unicode="!" horiz-adv-x="258" 
d="M130 81q21 0 35.5 -13t14.5 -32q0 -20 -14.5 -33t-35.5 -13q-22 0 -35.5 13t-13.5 33q0 19 14 32t35 13zM130 706q19 0 30 -11.5t11 -29.5q0 -43 -3.5 -91.5t-9.5 -107t-8 -90.5q-13 -165 -13 -198h-16q-2 75 -17.5 238t-15.5 249q0 18 11 29.5t31 11.5z" />
    <glyph glyph-name="quotedbl" unicode="&#x22;" horiz-adv-x="341" 
d="M76 522q-28 101 -28 171q0 16 12 27.5t29 11.5t29 -11.5t12 -27.5q0 -45 -13 -105q-15 -63 -22 -101h-11q-2 11 -8 35zM210 693q0 16 12 27.5t29 11.5t29 -11.5t12 -27.5q0 -36 -13 -105q-3 -14 -9.5 -43t-9.5 -42l-3 -16h-10q-1 6 -4.5 19t-4.5 16q-13 57 -15 65
q-13 59 -13 106z" />
    <glyph glyph-name="numbersign" unicode="#" horiz-adv-x="763" 
d="M342 400l-80 -197h184l82 197h-186zM90 174v29h105l80 197h-141v29h153l83 200h67l-83 -200h186l85 205h67l-84 -205h100v-29h-113l-81 -197h149v-29h-161l-84 -203h-68l84 203h-185l-86 -209h-67l86 209h-92z" />
    <glyph glyph-name="dollar" unicode="$" horiz-adv-x="535" 
d="M39 55q0 48 14 142h12q1 -83 51.5 -135t126.5 -57v293q-21 9 -68 36q-60 33 -97 70t-37 91q0 50 32.5 87t77.5 53t92 16v112h29v-112q106 -6 178 -37l5 -2v-5q0 -63 -15 -151h-11q6 74 -41 123.5t-116 59.5v-265q12 -6 35.5 -18.5t38 -20t34.5 -19t36 -22.5
q76 -57 76 -131q0 -42 -20 -74.5t-53.5 -51.5t-70 -30t-76.5 -14v-90h-29v89q-138 7 -201 57l-3 2v4zM272 6q61 6 101.5 42t40.5 93q0 24 -12 44.5t-39 40t-42 28t-49 26.5v-274zM243 638q-46 0 -85 -34.5t-39 -79.5q0 -24 10.5 -44t31 -37t38 -28t44.5 -25v248z" />
    <glyph glyph-name="percent" unicode="%" horiz-adv-x="944" 
d="M60 510q0 72 52 128t143 56q47 0 93 -22t73 -63q6 -1 19 -1q80 2 148.5 19.5t97.5 34.5l28 17h41l-502 -720h-41l469 673q-97 -46 -247 -48q14 -33 14 -74q0 -70 -51.5 -125.5t-141.5 -55.5q-91 0 -143 55.5t-52 125.5zM521 141q0 72 52 128t142 56t141.5 -56.5
t51.5 -127.5q0 -70 -51.5 -125.5t-141.5 -55.5t-142 55.5t-52 125.5zM715 315q-40 0 -67 -30.5t-37 -68t-10 -75.5q0 -22 5.5 -48t17.5 -54.5t35.5 -47.5t55.5 -19q41 0 68 29t36 64.5t9 75.5q0 24 -5 50t-16 56t-35 49t-57 19zM141 510q0 -32 8.5 -67t36 -68.5t69.5 -33.5
q59 0 85.5 52t26.5 117q0 43 -11 80q-93 15 -170 63q0 -1 -3 -4.5t-4 -5.5q-38 -57 -38 -133zM255 684q-27 0 -46 -12q73 -43 137 -55q-30 67 -91 67z" />
    <glyph glyph-name="ampersand" unicode="&#x26;" horiz-adv-x="719" 
d="M286 430q-112 8 -150 82q-31 62 7 128q43 74 142 90l45 3q19 0 66.5 -5.5t67.5 -5.5q9 0 23 2l-3 -144l-8 2q-4 71 -37.5 99t-103.5 28q-55 0 -83.5 -40t-28.5 -98q0 -54 31.5 -95.5t87.5 -45.5q19 -2 -3 -3q-83 -4 -139.5 -71t-56.5 -151q0 -105 55.5 -162.5
t157.5 -57.5q100 0 168 57t67 150q-1 52 -33 100.5t-89 48.5q-6 0 -22 -2l13 3q-31 -5 -50 -15q-30 -14 -45.5 -43t-2.5 -54q12 -22 34 -22q11 0 31.5 6.5t28.5 6.5q13 0 18 -12q11 -24 -22 -40q-14 -6 -26 -6q-44 0 -69 47q-22 43 -1.5 89.5t71.5 71.5q36 17 121 25t109 20
q58 28 35 69q-9 18 -31 22t-43 5t-27 12q-4 8 0 18t15 15q12 5 21 5q20 0 38.5 -15t28.5 -33q22 -42 6.5 -81t-65.5 -64q-16 -8 -36 -13q55 -55 52 -155q-3 -61 -33.5 -108t-76.5 -73t-95.5 -39t-98.5 -13q-132 0 -220.5 64.5t-92.5 168.5q-2 52 23 96t66 71t83 42.5
t80 19.5z" />
    <glyph glyph-name="quotesingle" unicode="'" horiz-adv-x="171" 
d="M85 732q17 0 29 -11.5t12 -27.5q0 -45 -13 -105q-15 -63 -22 -101h-11q-2 11 -8 35q-28 101 -28 171q0 16 12 27.5t29 11.5z" />
    <glyph glyph-name="parenleft" unicode="(" horiz-adv-x="289" 
d="M232 -106l-5 5q-37 30 -62 63q-141 158 -141 356q0 115 49 219t138 185l22 19l25 -20l-6 -6q-71 -79 -109 -184t-38 -213q0 -111 37 -215t110 -181l6 -6z" />
    <glyph glyph-name="parenright" unicode=")" horiz-adv-x="289" 
d="M31 -84l5 6q71 77 108.5 182t37.5 214q0 110 -37 215.5t-109 181.5l-5 6l25 20l5 -5q28 -23 52 -52q152 -162 152 -366q0 -120 -54 -229t-150 -189l-5 -5z" />
    <glyph glyph-name="asterisk" unicode="*" horiz-adv-x="411" 
d="M212 562l116 86l28 -48l-132 -55l132 -52l-28 -49l-116 87l22 -142h-59l22 142l-115 -87l-28 49l131 52l-131 55l28 48l115 -86l-22 142h59z" />
    <glyph glyph-name="plus" unicode="+" horiz-adv-x="575" 
d="M266 384v151h43v-150h156v-43h-156v-151l-43 -1v151h-156v43h156z" />
    <glyph glyph-name="comma" unicode="," horiz-adv-x="195" 
d="M103 -18q-8 5 -15 6l-3 1.5t-2 1.5t-3 1t-3 1q-33 11 -33 43q0 20 14.5 32.5t37.5 12.5q29 0 43 -22t14 -54q0 -87 -91 -151l-7 9q62 41 62 92q0 21 -14 27z" />
    <glyph glyph-name="hyphen" unicode="-" horiz-adv-x="400" 
d="M45 252v52h298v-52h-298z" />
    <glyph glyph-name="period" unicode="." horiz-adv-x="185" 
d="M93 81q21 0 35 -13t14 -32q0 -20 -14 -33t-35 -13q-22 0 -35.5 13t-13.5 33q0 19 14 32t35 13z" />
    <glyph glyph-name="slash" unicode="/" horiz-adv-x="362" 
d="M19 -47l276 690h60l-274 -690h-62z" />
    <glyph glyph-name="zero" unicode="0" horiz-adv-x="580" 
d="M129 318q0 -47 5.5 -91.5t20 -100t49 -89.5t84.5 -34q73 0 120 89q17 31 26 74.5t10 72t1 79.5t-6 99.5t-21.5 102t-48.5 86t-81 32.5t-82 -32.5t-49.5 -86t-21.5 -101.5t-6 -100zM33 318q0 131 70 231t184 100q85 0 144 -48.5t84 -121t25 -161.5q0 -91 -24.5 -162.5
t-82.5 -118.5t-145 -47q-85 0 -144 46.5t-85 118.5t-26 163z" />
    <glyph glyph-name="one" unicode="1" horiz-adv-x="341" 
d="M224 649q4 2 6 2q3 0 5 -3.5t2 -11v-15t-0.5 -21t-0.5 -22.5q0 -65 -0.5 -188.5t-0.5 -178.5v-21q0 -147 29 -173q10 -11 37 -17h-218q31 8 43 35q12 20 14 93q1 37 1 94v264v21q0 47 -23 47q-13 0 -36 -13q-6 -3 -26 -16.5t-30 -19.5q-1 -1 -4 -1q-4 0 -5 4t3 5z" />
    <glyph glyph-name="two" unicode="2" horiz-adv-x="554" 
d="M32 0v11q14 27 52.5 65t85 77t93 82.5t83 94.5t48.5 99q27 103 -6 155.5t-99 52.5h-9q-74 -5 -120 -47t-64 -106l-13 -1q14 72 69.5 123.5t140.5 51.5q83 0 148.5 -54t65.5 -131q0 -51 -31 -102.5t-84.5 -97.5t-104 -82t-111 -75.5t-84.5 -57.5h321q23 0 37 4t22 15
t10.5 18t6.5 25h11l-10 -120h-458z" />
    <glyph glyph-name="three" unicode="3" horiz-adv-x="517" 
d="M159 325q34 26 44.5 34.5t35 31.5t33.5 39t20 43.5t15 59.5q5 44 -17 75t-64 31q-53 0 -102 -37t-66 -87l-8 2q12 62 76 107.5t130 45.5q59 0 106.5 -33.5t47.5 -87.5q0 -47 -44.5 -93.5t-96.5 -64.5q84 0 148 -48.5t64 -123.5q0 -103 -87 -169.5t-209 -66.5
q-64 0 -113.5 30.5t-49.5 70.5q0 12 9.5 22.5t22.5 10.5t22.5 -18.5t17.5 -41t36 -41t73 -18.5h13q74 4 116.5 60t40.5 132q-1 59 -32 108t-89 49q-41 0 -85 -31z" />
    <glyph glyph-name="four" unicode="4" horiz-adv-x="574" 
d="M31 222l325 427l64 -3v-429h129v-14h-128q-1 -130 10 -161.5t65 -41.5h-253q35 7 48.5 18.5t19.5 47.5t6 121v16h-286v19zM317 217q-1 41 0 171.5t1 171.5l-269 -343h268z" />
    <glyph glyph-name="five" unicode="5" horiz-adv-x="525" 
d="M79 111h4q15 0 21.5 -10t10 -25t11 -30t31 -26t63.5 -13q74 0 113 50t39 126q0 82 -36.5 135t-116.5 53q-30 0 -68 -19.5t-63 -44.5l-29 12l16 299q158 9 172 10q14 2 17 2q70 7 81 10q50 12 62 39h5v-103h-302l-12 -236q63 49 144 49q101 0 172.5 -46t71.5 -139
q0 -66 -43 -115t-103.5 -71.5t-125.5 -22.5q-4 0 -10 0.5t-10 0.5q-111 7 -139 78q-7 18 1.5 27t22.5 10z" />
    <glyph glyph-name="six" unicode="6" horiz-adv-x="608" 
d="M296 -10q-80 2 -135.5 54.5t-77 122.5t-18.5 143q3 46 13 91t31.5 88t51.5 75.5t75 53t99 20.5q71 1 123.5 -33t50.5 -83q-2 -34 -36 -34q-4 0 -16 2q-10 2 -15 16.5t-8 34t-10.5 38.5t-29.5 33t-58 15h-5q-21 0 -38.5 -5.5t-31 -18.5t-24.5 -25t-19.5 -35t-14 -37.5
t-10 -43.5t-7 -41.5t-4.5 -43t-2.5 -37.5t-1.5 -35v-6q68 68 165 68q96 -4 148 -56t41 -145q-11 -87 -77.5 -131.5t-158.5 -44.5zM333 350q-51 0 -87 -17t-70 -57q-10 -269 128 -273q118 0 128 167q13 174 -99 180z" />
    <glyph glyph-name="seven" unicode="7" horiz-adv-x="531" 
d="M69 638h436v-1q-90 -106 -160.5 -248.5t-70.5 -258.5q0 -24 5 -52q7 -30 8 -54q1 -17 -17.5 -29.5t-41.5 -12.5q-24 0 -41 14.5t-17 43.5q0 112 86.5 282.5t179.5 278.5l11 13h-16q-212 0 -283 -21q-61 -20 -74 -66h-5v111z" />
    <glyph glyph-name="eight" unicode="8" horiz-adv-x="576" 
d="M258 300q-104 -42 -104 -150q0 -33 6.5 -60.5t21 -52.5t42.5 -39.5t67 -14.5q65 0 98 42t33 106q0 32 -14.5 59t-41.5 48t-50.5 34t-57.5 28zM408 494q0 58 -30.5 94t-90.5 36q-57 0 -90 -32t-33 -86q0 -31 14.5 -57t42.5 -45t51.5 -31t56.5 -25q45 26 62 60.5t17 85.5z
M85 475q0 71 63 118t139 47q48 0 93 -14t80 -48.5t35 -84.5q1 -55 -46.5 -97.5t-107.5 -56.5q38 -18 62 -32t54 -36.5t45 -50.5t15 -61q0 -80 -70 -134t-157 -54q-90 0 -162.5 48.5t-71.5 129.5q1 62 54.5 104.5t131.5 55.5q-157 69 -157 166z" />
    <glyph glyph-name="nine" unicode="9" horiz-adv-x="545" 
d="M225 261q-95 4 -147.5 56t-40.5 145q11 88 77 132t159 44q60 -1 107.5 -32t74 -78.5t39 -102t9.5 -107.5q-3 -59 -19.5 -114t-47 -104.5t-83 -79.5t-119.5 -30q-71 -1 -124 33t-50 83q2 34 36 34q4 0 16 -2q10 -2 15 -16.5t8 -34t10.5 -38.5t29.5 -33t58 -15h5
q21 0 38.5 5.5t31 18.5t24.5 25t19.5 35t14 37.5t10 43.5t7 41.5t4.5 43t2.5 37.5t1.5 35v7q-67 -69 -166 -69zM137 458q-13 -174 99 -180q50 0 86 17.5t70 56.5q0 33 0.5 69t-7 72t-20 65t-38.5 47.5t-62 19.5q-118 0 -128 -167z" />
    <glyph glyph-name="colon" unicode=":" horiz-adv-x="185" 
d="M93 455q21 0 35 -13t14 -33q0 -19 -14 -32t-35 -13t-35 13t-14 32q0 20 14 33t35 13zM93 181q21 0 35 -13t14 -32q0 -20 -14 -33t-35 -13q-22 0 -35.5 13t-13.5 33q0 19 14 32t35 13z" />
    <glyph glyph-name="semicolon" unicode=";" horiz-adv-x="185" 
d="M93 365q21 0 35 -13t14 -33q0 -19 -14 -32t-35 -13t-35 13t-14 32q0 20 14 33t35 13zM125 -33q-5 10 -26 19t-36.5 22.5t-12.5 35.5q7 38 59 38q29 -3 38.5 -29t5.5 -60q-9 -77 -109 -130l-6 10q87 41 87 94z" />
    <glyph glyph-name="less" unicode="&#x3c;" horiz-adv-x="525" 
d="M72 297v33l397 177v-39l-353 -154l353 -155v-40z" />
    <glyph glyph-name="equal" unicode="=" horiz-adv-x="518" 
d="M80 385h356v-43h-356v43zM436 261v-42h-356v42h356z" />
    <glyph glyph-name="greater" unicode="&#x3e;" horiz-adv-x="525" 
d="M453 330v-33l-396 -178v40l352 155l-352 154v39z" />
    <glyph glyph-name="question" unicode="?" horiz-adv-x="392" 
d="M156 203q0 44 14.5 81.5t35 65.5t41.5 56.5t35.5 69t14.5 89.5q0 153 -106 153q-35 0 -67.5 -13.5t-32.5 -44.5q0 -13 15 -33t15 -36q0 -44 -47 -44q-24 0 -36 18.5t-12 43.5q0 60 50 89.5t119 32.5q91 0 153.5 -40.5t62.5 -127.5q0 -49 -22.5 -89.5t-55 -69t-65.5 -54.5
t-59 -58.5t-30 -67.5q-1 -9 -1 -55h-22v34zM167 91q17 0 29 -12t12 -28q0 -17 -11.5 -30t-29.5 -13q-19 0 -31.5 12.5t-12.5 30.5q0 17 12.5 28.5t31.5 11.5z" />
    <glyph glyph-name="at" unicode="@" horiz-adv-x="1136" 
d="M732 255q-10 -36 -10 -77q0 -54 21 -93t69 -39q51 0 90.5 38t60.5 95.5t31.5 113.5t10.5 102q0 172 -126.5 291.5t-309.5 119.5q-95 0 -177.5 -42.5t-137.5 -112t-86.5 -157.5t-31.5 -180q0 -93 31 -180.5t87 -156.5t142 -111t188 -42q122 0 247 71t176 174l2 5h41
l-6 -11q-54 -112 -188 -181t-273 -69q-115 0 -212.5 39t-164.5 106t-104.5 159t-37.5 197q0 138 61 252t178.5 182t268.5 68q135 0 249 -49t185 -146.5t71 -225.5q0 -53 -17.5 -113.5t-50 -117t-86.5 -93.5t-118 -37q-65 0 -108 35t-54 92q-54 -77 -168 -77
q-78 0 -119.5 52.5t-41.5 125.5q0 118 68.5 200t193.5 82q42 0 76 -18.5t51 -51.5l16 60h85zM506 103q54 0 89 46.5t52 109.5q1 2 20 79q3 8 5.5 16.5t5 18.5l3.5 14q1 6 4 15q0 1 1 3v2q0 49 -31.5 88.5t-78.5 39.5q-46 0 -81.5 -25.5t-55 -66.5t-29 -84t-9.5 -85
q0 -27 5.5 -55t17.5 -55t33 -44t49 -17z" />
    <glyph glyph-name="A" unicode="A" 
d="M-4 1q18 6 34.5 22.5t30.5 44.5t22.5 48.5t20.5 55t15 42.5l170 482h101l180 -482q6 -13 25 -62t37.5 -86t35.5 -52q9 -8 33 -14l-240 -2q22 1 35.5 8t17 20.5t3 28t-6.5 34.5t-12.5 36t-14.5 36.5t-12 31.5l-2 8l-20 53q-44 -36 -142 -36h-35q-103 0 -147 -42l-28 -90
q-10 -37 -3.5 -58t24.5 -27h-122zM132 198q42 32 147 32h9q36 0 57 1.5t49.5 10.5t49.5 26l-148 398z" />
    <glyph glyph-name="B" unicode="B" horiz-adv-x="586" 
d="M56 662q-11 24 -36 34h200q48 0 91.5 -5t95.5 -19t83.5 -46.5t31.5 -80.5v-1q-1 -143 -262 -184q32 -1 53.5 -2.5t56 -6.5t57.5 -11.5t49.5 -19.5t42.5 -29.5t27 -42t11 -57.5q0 -56 -29 -96t-78.5 -59.5t-99.5 -28t-107 -8.5q-37 0 -110.5 0.5t-111.5 0.5q51 13 51 146
q0 39 1 116t1 115q0 255 -18 285zM438 187q0 51 -17.5 85.5t-50 51t-67 23t-80.5 6.5q-34 0 -50 -1q0 -257 7 -292q6 -24 13 -35.5t22 -14.5q99 0 161 41.5t62 135.5zM173 363q237 7 237 175v1q0 39 -16.5 67t-39.5 43t-57.5 23.5t-61 11t-60.5 2.5q0 -4 -1 -112t-1 -189
v-22z" />
    <glyph glyph-name="C" unicode="C" horiz-adv-x="761" 
d="M716 442l-16 -1q-1 61 -31.5 111.5t-76.5 80.5t-96 46.5t-95 16.5q-69 0 -120.5 -29.5t-80 -80t-42.5 -109.5t-14 -127t13.5 -127.5t41.5 -110.5t77 -80.5t115 -29.5q110 0 206.5 77t116.5 179l18 -7q-17 -99 -111 -179.5t-213 -81.5h-6q-172 0 -274.5 100t-102.5 258
t102.5 257t273.5 101h7q74 0 138.5 -19t96.5 -37.5t73 -49.5v-158z" />
    <glyph glyph-name="D" unicode="D" horiz-adv-x="727" 
d="M221 13q15 -1 42 -1q159 0 240.5 79.5t81.5 256.5q0 170 -93.5 254t-252.5 84q-37 0 -65 -4v-546q0 -1 -0.5 -15t0 -20.5t1.5 -20.5t4.5 -22.5t8.5 -18.5t13.5 -16.5t19.5 -9.5zM193 696q188 0 273 -30q117 -38 176.5 -121.5t59.5 -195.5q0 -172 -121 -260.5t-317 -88.5
h-244q17 3 34 17h-1q12 10 17.5 82.5t5.5 122.5v285q0 154 -23 173q-14 13 -30 16h170z" />
    <glyph glyph-name="E" unicode="E" horiz-adv-x="599" 
d="M23 0q20 4 37 17q29 24 29 205v285q0 148 -29 173q-14 11 -33 16h504v-104h-6q-17 52 -66 70q-63 24 -269 24v-364h15h23h64q62 0 84 17t28 80h5v-201h-5q-1 28 -8 45.5t-17 28t-32.5 14.5t-43.5 5t-62 1h-36h-15v-178q2 -48 9 -73q3 -15 17.5 -32t34.5 -18q18 -1 61 -1
q231 0 251 99h6v-109h-546z" />
    <glyph glyph-name="F" unicode="F" horiz-adv-x="568" 
d="M20 0q24 5 37 17q22 18 26 101q3 44 3 104v285q0 148 -29 173q-10 10 -33 16h502v-101h-7q-14 46 -72 67q-65 24 -260 24v-364h26h23h63q62 0 84 16.5t28 80.5h5v-202h-5q-3 66 -34.5 80.5t-130.5 14.5h-11h-10.5h-11.5h-26v-90q0 -52 1 -87q6 -115 55 -131h-1q5 0 9 -2
q2 -1 6 -1.5t6 -0.5h-243z" />
    <glyph glyph-name="G" unicode="G" horiz-adv-x="781" 
d="M752 317h6q-16 -6 -28 -25q-16 -27 -16 -132q0 -7 0.5 -20.5t0.5 -19.5q1 -11 1 -30q1 -13 1 -23q-61 -36 -147.5 -56.5t-162.5 -20.5q-169 0 -275.5 100.5t-106.5 257.5q0 158 103 258t273 100q65 0 153 -18t136 -47v-121h-9q-6 47 -37.5 83.5t-75 55.5t-86 28t-81.5 9
q-69 0 -121 -29.5t-80.5 -80t-42 -109.5t-13.5 -128q0 -71 15 -131.5t45.5 -110.5t84 -78.5t124.5 -28.5q156 0 202 89v81q0 71 -6 101q-2 10 -12 17t-29.5 10t-30.5 4t-35 2q-66 2 -66 4v3z" />
    <glyph glyph-name="H" unicode="H" horiz-adv-x="732" 
d="M72 507q0 6 1 38.5t0 49t-5 41.5t-16.5 39.5t-31.5 20.5h201q-14 -4 -23 -10q-27 -22 -27 -211v-196q36 25 93 33t106.5 6t104.5 8.5t89 39.5v109q0 160 -17 194q-7 16 -19 23l-2 1q-2 1 -4.5 1.5t-4.5 1.5h191q-40 -10 -44 -127q-1 -37 -1 -94v-253q0 -56 2 -94
q3 -101 33 -123q1 -1 6 -2.5t8 -2.5h-198q24 8 34 28q11 21 15 100q1 37 1 94v127q-35 -27 -90.5 -36t-105 -7t-105.5 -7t-92 -35v-74q0 -6 -0.5 -30.5t-0.5 -39.5t2.5 -38.5t8 -38t17 -27.5t27.5 -16h-204q2 1 5 2t5.5 1.5t3.5 1.5q29 16 36 123q1 37 1 94v285z" />
    <glyph glyph-name="I" unicode="I" horiz-adv-x="293" 
d="M246 696q-15 -4 -22 -10q-28 -22 -28 -211v-285q0 -152 22 -173q15 -14 33 -17h-204q2 1 5 2t5 1.5t3 1.5q13 7 20 23q12 23 16 100q1 37 1 94v285q0 156 -20 173q-12 10 -31 16h200z" />
    <glyph glyph-name="J" unicode="J" horiz-adv-x="513" 
d="M492 696q-9 -2 -16 -6t-12.5 -8.5t-10 -12l-7.5 -12.5t-5 -15.5t-3 -15.5t-1.5 -17t-1 -16t-0.5 -16.5v-15.5q-1 -57 -0.5 -163.5t0.5 -159.5q-2 -122 -58.5 -190.5t-174.5 -68.5q-93 0 -134 50.5t-35 105.5q3 35 39 35q25 -1 31 -29t4 -60.5t19 -60t72 -27.5h12
q32 2 55 20t34.5 41t18.5 61t8 63t2 65t1 49v272q3 116 -56 132h219z" />
    <glyph glyph-name="K" unicode="K" horiz-adv-x="711" 
d="M20 0q20 4 37 17q29 25 29 205v285q0 147 -29 173q-16 12 -33 16h220q-27 -7 -40 -34q-17 -30 -17 -187v-192q62 18 137 87.5t125.5 152.5t50.5 137q0 24 -20 35h1l-3 1h163q-39 -7 -71.5 -33t-47.5 -48t-43 -68q-146 -239 -292 -274l-1 -36q0 -36 0.5 -57t2 -54.5
t5.5 -56t10 -34.5q13 -28 43 -35h-227zM298 313q66 0 110.5 -30t67 -72.5t41.5 -84.5t48 -72t72 -30h6q17 1 35 12t28 22l9 10q-9 -27 -52.5 -47.5t-86.5 -21.5q-51 -1 -86.5 28.5t-55 73t-36.5 88t-41.5 80.5t-58.5 44z" />
    <glyph glyph-name="L" unicode="L" horiz-adv-x="577" 
d="M534 0h-514q31 9 42 35q8 14 15 93v94v253q0 158 -15 188q-12 26 -37 33h218q-22 -6 -34 -16q-28 -22 -28 -205v-342q2 -48 7 -74q9 -47 45 -49q23 -1 64 -1q82 0 139 13q71 24 90 82h8v-104z" />
    <glyph glyph-name="M" unicode="M" horiz-adv-x="965" 
d="M160 696l305 -517l303 517h173q-21 -5 -33 -16q-28 -23 -28 -205v-295q0 -137 28 -163q13 -11 37 -17h-231q23 5 36 16q27 21 27 173v489l-351 -598l-310 495v-376q0 -109 17.5 -150.5t53.5 -48.5h-155q3 0 7 1q1 0 2 1q58 16 58 177v340q0 49 -20.5 109t-58.5 71z" />
    <glyph glyph-name="N" unicode="N" horiz-adv-x="701" 
d="M681 696q-15 -4 -22 -9q-45 -28 -45 -187v-505h-25l-464 614v-410q0 -158 43 -188q12 -7 28 -11h-158q13 3 27 11q44 30 44 188v301q0 8 0.5 36t0 35.5t-2 29t-5 28.5t-10 21.5t-16 20.5t-23.5 13.5t-33 11.5h167l409 -549l3 339v14q0 158 -45 187q-8 5 -23 9h150z" />
    <glyph glyph-name="O" unicode="O" horiz-adv-x="811" 
d="M666 347q0 54 -9 103.5t-29 94.5t-50 78.5t-75 53t-100 19.5q-70 0 -122 -29.5t-80.5 -80t-42 -110t-13.5 -127.5q0 -69 14.5 -129t44.5 -110.5t82.5 -80t122.5 -29.5q56 0 100.5 20t73.5 53t48 78.5t27 93.5t8 102zM783 354q0 -160 -101.5 -262t-272.5 -102
q-170 0 -275.5 103t-105.5 262t101.5 255t273.5 96q171 0 275.5 -96.5t104.5 -255.5z" />
    <glyph glyph-name="P" unicode="P" horiz-adv-x="598" 
d="M20 0q18 4 33 17q23 19 23 205v285q0 153 -23 172q-15 14 -33 17h235q55 0 109 -13t102 -38.5t77.5 -71t29.5 -104.5q0 -68 -31 -119.5t-84 -81t-114.5 -44t-129.5 -14.5q-12 0 -40 2v-22q0 -153 21 -173q17 -14 34 -17h-209zM174 226q21 -4 45 -4q101 0 175 59.5
t74 170.5v1q0 70 -21.5 117t-62.5 71.5t-90.5 34.5t-118.5 10z" />
    <glyph glyph-name="Q" unicode="Q" horiz-adv-x="798" 
d="M407 -10q-164 0 -273 104t-109 261t105 254t271 97q165 0 273.5 -97.5t108.5 -254.5q0 -102 -47 -184.5t-130 -129.5l5 -2.5t4 -2.5q134 -72 213 -72q19 0 34 4q26 4 50 18t36 25l11 10l-5 -5q-4 -5 -12.5 -14t-19.5 -18.5t-27 -19t-33 -15.5q-25 -11 -61 -11
q-77 0 -184 55q-31 16 -55 27q-70 -29 -155 -29zM134 349q0 -112 37 -199t118 -125q28 41 83 58q27 11 58 11q60 0 142 -38q101 88 101 291q0 69 -14 128.5t-44.5 110.5t-85 80.5t-128.5 29.5q-61 0 -108 -20t-76.5 -52.5t-48.5 -78.5t-26.5 -93.5t-7.5 -102.5zM292 24
q51 -24 115 -24q73 0 128 31q-83 33 -134 33q-63 0 -109 -40z" />
    <glyph glyph-name="R" unicode="R" horiz-adv-x="603" 
d="M20 0q18 4 33 17q23 19 23 205v285q0 153 -23 172q-15 14 -33 17h236q55 0 106 -13t94.5 -38.5t70 -71t26.5 -104.5q0 -60 -22.5 -107.5t-62.5 -77.5t-89 -47.5t-107 -23.5q54 -6 91 -30t72 -78q46 -74 84 -74q21 0 39.5 9.5t25.5 18.5l8 9h9q-10 -29 -45.5 -49.5
t-84.5 -20.5h-4q-36 1 -63 16.5t-38.5 30.5t-31.5 48q-21 33 -31.5 48.5t-34 37t-49.5 31.5q-15 0 -45 2v-22q0 -153 21 -173q17 -14 34 -17h-209zM174 226q21 -4 46 -4q94 0 161 59.5t67 169.5v2q-1 135 -66.5 184t-206.5 49z" />
    <glyph glyph-name="S" unicode="S" horiz-adv-x="611" 
d="M66 304q-22 -124 51.5 -212.5t186.5 -90.5q90 1 141 49t51 125q0 71 -57 119t-146 72q-48 14 -82.5 28t-69 36t-52.5 52.5t-18 69.5q0 46 21.5 78t58 48t75 23t82.5 7q119 0 225 -47q0 -58 -16 -154h-9q11 83 -44 135t-156 55q-126 -3 -136 -126q0 -54 39 -82t113 -49
q46 -13 75.5 -23t68.5 -29.5t61.5 -41.5t38.5 -57t16 -78q0 -96 -82 -159t-199 -62q-45 1 -94.5 12t-100.5 41t-72 72q-5 28 -0.5 85.5t12.5 102.5z" />
    <glyph glyph-name="T" unicode="T" horiz-adv-x="635" 
d="M25 696h585v-108h-7q-4 34 -29 55.5t-66.5 30t-70 10.5t-68.5 2v-464q0 -56 2 -94q4 -71 16 -93q14 -26 48 -35h-232q13 3 24 10q13 9 22 25q18 27 18 173v14v464q-34 0 -54.5 -0.5t-55.5 -5.5t-56.5 -14.5t-42 -28.5t-27.5 -46h-6v105z" />
    <glyph glyph-name="U" unicode="U" horiz-adv-x="715" 
d="M242 696q-13 -4 -21 -11q-14 -10 -20 -23q-10 -21 -14 -94q-1 -37 -1 -93v-216q0 -114 47.5 -185t135.5 -71q120 0 179.5 74.5t59.5 194.5v226q0 55 -4 85q-3 24 -5 37t-9 31.5t-19.5 29.5t-32.5 15h157q-17 -4 -27 -11q-44 -26 -44 -187v-224q0 -130 -66.5 -205
t-198.5 -79q-134 0 -204 69.5t-70 204.5v243q0 147 -28 172q-14 12 -37 17h222z" />
    <glyph glyph-name="V" unicode="V" horiz-adv-x="753" 
d="M232 696q-32 -9 -30 -35q6 -64 55 -184l167 -447l159 447q1 4 4.5 15t5.5 16q35 102 35 134q0 39 -27 51l-1 1q-2 0 -4 1t-4 1h144q-1 -1 -4 -1h1q-47 -13 -85 -92q-14 -26 -37 -91l-11 -29l-173 -484h-98q-214 563 -264 666q-8 21 -49 31h216z" />
    <glyph glyph-name="W" unicode="W" horiz-adv-x="1143" 
d="M567 398l-142 -399h-92l-183 484q-54 145 -86 182q-17 23 -48 31h211q-30 -8 -30 -35q0 -31 19 -94q7 -14 14 -35q4 -9 12 -27.5t11 -27.5l168 -447l138 388zM632 695q-31 -8 -31 -35q0 -28 20 -94l190 -536l159 447q12 25 29 84.5t17 80.5q0 40 -27 51l-1 1q-2 0 -4 1
t-3 1h146h-2q-1 -1 -3 -1h1q-45 -13 -87 -92q-8 -17 -37 -91q-1 -2 -11 -29l-174 -484h-92l-168 483q-10 33 -39 97.5t-46 84.5q-20 24 -49 31h212z" />
    <glyph glyph-name="X" unicode="X" horiz-adv-x="696" 
d="M203 696q-8 -2 -11.5 -6t-2 -11.5t3 -11t5.5 -12.5q29 -59 166 -254l161 233q9 18 9 32q0 24 -24 30h150q-24 -5 -52 -24t-51 -42t-52 -59.5t-47.5 -62t-46 -65.5t-38.5 -55q100 -142 189 -255t112 -124q16 -6 32 -9h-221q17 8 17 21q0 8 -3 17t-9 19t-10.5 17t-12.5 18
t-11 15l-141 200l-80 -116q-8 -12 -28 -39t-34 -48t-24 -41q-10 -16 -10 -36q0 -21 24 -27h-153l6 1q98 24 290 318l-113 165q-76 114 -117 156q-45 46 -83 55h2l-4 1h212z" />
    <glyph glyph-name="Y" unicode="Y" horiz-adv-x="685" 
d="M213 696q-24 -7 -24 -29q0 -46 202 -371q12 30 56.5 113t77 152.5t32.5 96.5q0 29 -29 38h142q-36 -8 -42 -13q-15 -13 -42 -56.5t-56.5 -99.5t-55 -107.5t-46.5 -95t-22 -45.5v-57q0 -8 -0.5 -31.5t-0.5 -39t1.5 -39t6 -40t12 -33t21.5 -26.5t32 -13h-233q23 6 38 23
t20.5 45t7 47t1.5 47v106q-24 38 -70.5 121.5t-52.5 93.5q-2 3 -16 26.5t-22 36.5t-24 37t-28 39t-27 32.5t-29 27.5t-26 13h1l-3 1h198z" />
    <glyph glyph-name="Z" unicode="Z" horiz-adv-x="633" 
d="M58 696h555v-16l-490 -669q74 -2 135 -2q276 0 313 92h6v-101h-557v20l490 666h-64q-181 0 -273 -18t-108 -78h-7v106z" />
    <glyph glyph-name="bracketleft" unicode="[" horiz-adv-x="276" 
d="M75 720h197v-22h-114v-789h114v-22h-197v833z" />
    <glyph glyph-name="backslash" unicode="\" horiz-adv-x="363" 
d="M7 643h60l277 -690h-64z" />
    <glyph glyph-name="bracketright" unicode="]" horiz-adv-x="277" 
d="M201 720v-833h-197v22h114v789h-114v22h197z" />
    <glyph glyph-name="asciicircum" unicode="^" horiz-adv-x="561" 
d="M263 670h32l110 -132h-39l-88 105l-86 -105h-40z" />
    <glyph glyph-name="underscore" unicode="_" horiz-adv-x="507" 
d="M47 -70v30h418v-30h-418z" />
    <glyph glyph-name="grave" unicode="`" horiz-adv-x="360" 
d="M154 552q-3 0 -5 6q0 3 2 6.5t6 7t4 4.5l84 95q22 27 35 29q18 0 21 -16q3 -3 0 -9t-3 -8.5t-5.5 -7.5t-7 -6.5t-7.5 -5.5t-7 -5l-96 -77q-15 -11 -20 -12z" />
    <glyph glyph-name="a" unicode="a" horiz-adv-x="501" 
d="M32 141q0 70 61.5 108.5t163.5 38.5q44 0 91 -14v37q0 32 -3 55.5t-13 49t-33 39.5t-57 14q-57 0 -83 -57l-2.5 -5t-2.5 -4q-1 -5 -6 -10l-9 -15q-8 -13 -28 -13q-31 0 -31 30q0 28 34.5 48t71.5 26.5t66 6.5q36 0 79 -10t65 -29q43 -42 43 -116l-1 -180q0 -93 12 -117
q12 -19 36 -24h-221q-44 0 -79 4.5t-73 18t-59.5 43.5t-21.5 75zM270 280q-46 0 -77 -12t-46 -33t-21 -43.5t-6 -50.5q0 -29 5 -50t19.5 -42t45 -32t75.5 -11q51 0 65 15l2 4q14 28 14 123l1 120q-46 12 -77 12z" />
    <glyph glyph-name="b" unicode="b" horiz-adv-x="584" 
d="M10 744q86 8 163 8l-2 -332q25 24 64 40t79 16q106 0 171.5 -67.5t65.5 -176.5q0 -107 -68 -174.5t-174 -67.5q-63 0 -99 10h-185q26 5 38 25q13 28 13 137q0 6 2 172.5t0 260.5t-11 113q-20 28 -57 36zM315 468q-41 0 -80.5 -19.5t-63.5 -49.5l-2 -250q0 -101 11 -125
q39 -26 129 -26q44 0 75.5 25t45.5 64.5t19.5 74.5t5.5 70q0 28 -2.5 54.5t-11 61.5t-22.5 60t-41 42.5t-63 17.5z" />
    <glyph glyph-name="c" unicode="c" horiz-adv-x="472" 
d="M267 -10q-99 0 -166 70t-67 168q0 108 65.5 178t173.5 70q51 0 106.5 -18t55.5 -57q0 -26 -32 -26q-17 0 -30 15t-20.5 33t-28 33t-50.5 15q-133 0 -133 -236q0 -38 6 -74.5t20.5 -74t44 -60.5t69.5 -23q46 0 87 20.5t64 57.5h10q-49 -91 -175 -91z" />
    <glyph glyph-name="d" unicode="d" horiz-adv-x="554" 
d="M31 232q0 109 66 176.5t172 67.5q77 0 135 -49q0 255 -12 281q-22 29 -57 36q84 8 164 8l-5 -603q0 -102 12 -125q11 -19 36 -24h-169q-36 -10 -100 -10q-106 0 -174 67.5t-68 174.5zM268 468q-45 0 -75 -24.5t-43 -66t-17.5 -75t-4.5 -70.5q0 -35 5.5 -69.5t19.5 -74.5
t45 -65t75 -25q65 0 103 13q8 8 12 14q14 28 14 137q0 22 1 107.5t1 138.5q-58 60 -136 60z" />
    <glyph glyph-name="e" unicode="e" horiz-adv-x="521" 
d="M281 466q-120 0 -143 -218h272q-2 38 -6 67t-16 68t-39.5 61t-67.5 22zM137 238q0 -39 3 -69.5t13.5 -63t28 -53.5t49 -35t74.5 -14q51 0 103.5 31t82.5 80h7q-24 -57 -84.5 -90.5t-124.5 -33.5q-112 0 -183.5 64.5t-71.5 172.5q0 112 65 180.5t177 68.5q104 0 167 -66
t65 -172h-371z" />
    <glyph glyph-name="f" unicode="f" horiz-adv-x="367" 
d="M114 435q0 39 0.5 63t4.5 60.5t11 59t21 48.5t34 41t50.5 25t69.5 10q59 -1 98.5 -37.5t37.5 -87.5q-1 -13 -14 -23.5t-29 -10.5q-6 0 -16 4q-16 8 -18 33t1.5 49.5t-13 44t-58.5 18.5q-16 0 -29.5 -6t-22.5 -17.5t-16 -23.5t-11 -31t-6.5 -33t-3 -35.5t-1 -33.5t0 -32
t0.5 -26v-59h135v-14h-135v-231q0 -149 27 -173q14 -12 37 -17h-211q14 4 24.5 15t16.5 28.5t10 34t5 40t1 39t-0.5 37.5t-0.5 28v199h-93v14h93z" />
    <glyph glyph-name="g" unicode="g" horiz-adv-x="531" 
d="M22 308q0 86 61.5 127t159.5 41q29 0 54 -3q67 71 137 71q8 0 22 -2q13 -2 21.5 -12t6.5 -22q-10 -33 -40 -33q-3 0 -22 15t-44 15q-22 0 -36 -7.5t-33 -26.5q72 -12 114.5 -52.5t42.5 -110.5q0 -86 -62 -127t-161 -41q-13 0 -39 2q-69 -11 -69 -57q0 -20 27 -29t67 -9
t86.5 -6t86.5 -17t65.5 -43.5t24.5 -84.5q-2 -78 -66 -131.5t-175 -53.5q-38 0 -74.5 6.5t-72.5 21.5t-58 44t-22 69t36.5 67t78.5 27q17 0 32 -6q-20 -5 -41 -32t-21 -56q0 -60 35 -95t109 -36q72 0 114 37.5t42 108.5q0 49 -35 74t-84.5 30t-98.5 8t-83.5 20.5t-33.5 55.5
q0 47 65 77l35 14q-152 28 -152 162zM117 307q0 -73 32.5 -115.5t93.5 -42.5t93.5 42.5t32.5 115.5t-33 116t-93 43t-93 -43t-33 -116zM297 473l-4 -6l11 -1l5 5q-4 0 -12 2z" />
    <glyph glyph-name="h" unicode="h" horiz-adv-x="583" 
d="M11 725q86 8 163 8l1 -333q28 31 74.5 55t91.5 24q92 0 141 -49.5t49 -128.5v-141q0 -109 15 -136q12 -18 36 -24h-192q24 6 36 25q14 26 14 144l-1 118v30t-2 31t-5.5 35t-11 30t-18 27t-28 16.5t-39.5 7.5q-46 0 -91.5 -25.5t-68.5 -57.5v-93l-1 -139q0 -102 13 -125
q11 -19 36 -24h-192q26 5 38 25q14 28 14 137l1 96q0 96 -0.5 139.5t-2 120t-5 118t-8.5 53.5q-20 28 -57 36z" />
    <glyph glyph-name="i" unicode="i" horiz-adv-x="275" 
d="M76 432q-18 28 -55 36q84 8 162 8l1 -188l-1 -139q0 -102 13 -125q11 -19 36 -24h-192q26 5 37 25q15 28 15 137v53.5v51v43t-1 40.5t-3 32t-5 29t-7 21zM130 685q26 0 43.5 -16.5t17.5 -39.5q0 -24 -17.5 -41.5t-43.5 -17.5q-25 0 -42 17.5t-17 41.5q0 23 17 39.5
t42 16.5z" />
    <glyph glyph-name="j" unicode="j" horiz-adv-x="311" 
d="M-14 -192q8 -3 16.5 -19t19.5 -29.5t29 -13.5q7 0 10 1q14 2 25 15t17 32.5t10 43.5t5 48.5t2 48t0 41.5v15v252v25v34t-1 35t-3.5 38.5t-6 32.5t-10 29t-15.5 17q-21 12 -33 14h6q18 0 78 4t77 4v-422q0 -141 -15 -199q-36 -133 -170 -133q-73 0 -89 44q-6 19 3 32.5
t27 13.5q10 0 18 -4zM92 629q0 23 17.5 39.5t42.5 16.5t43 -16.5t18 -39.5q0 -24 -18 -41.5t-43 -17.5t-42.5 17.5t-17.5 41.5zM46 468h5h-5z" />
    <glyph glyph-name="k" unicode="k" horiz-adv-x="526" 
d="M8 724q70 8 163 8v-504q55 22 130.5 92t75.5 111q0 24 -16 34h156q-30 -8 -68 -39.5t-81.5 -74t-67.5 -60.5q-31 -24 -66 -44q4 0 11.5 0.5t10.5 0.5q60 0 98.5 -22.5t56 -56t31 -68t38 -63.5t62.5 -38h-62q-38 0 -65 16.5t-37.5 33.5t-23.5 46.5t-18 37.5
q-53 94 -111 108q1 0 3 2q-42 -23 -57 -29v-55q0 -109 13 -135q10 -18 37 -25h-195q16 4 27 15.5t16.5 23t8 33t3 33t0 35.5t-0.5 29v442q0 24 -2 40.5t-8.5 34t-22 27.5t-39.5 11z" />
    <glyph glyph-name="l" unicode="l" horiz-adv-x="254" 
d="M12 726q72 7 153 7v-564q0 -116 13 -143q11 -19 37 -26h-192q26 8 36 25q15 28 15 144v389q0 122 -14 141q-4 10 -17 16l-1 1q-15 9 -31 10h1z" />
    <glyph glyph-name="m" unicode="m" horiz-adv-x="861" 
d="M65 432q-20 28 -57 36q86 8 164 8v-74q27 31 68 54t82 23q110 0 151 -80q26 32 68.5 56t83.5 24q84 0 134 -54.5t50 -133.5v-131q0 -111 13 -136q11 -17 33 -24h-186q25 7 34 25q12 26 12 144l-1 118q0 25 -0.5 35t-2.5 36.5t-8 40t-16 31t-27.5 25t-40.5 7.5
q-39 0 -78.5 -22t-62.5 -52q18 -43 18 -107v-121q0 -109 14 -136q8 -16 32 -24h-185q23 7 33 25q15 30 15 144q0 9 0.5 39t0 52.5t-2 55t-7.5 55.5t-15.5 45.5t-25.5 34t-38 11.5q-41 0 -82.5 -23.5t-62.5 -54.5v-235q0 -102 11 -125q12 -19 38 -24h-193q26 5 38 25
q13 28 13 137v53.5v50.5v43.5t-1 40.5t-2.5 32t-4 29t-6.5 21z" />
    <glyph glyph-name="n" unicode="n" horiz-adv-x="592" 
d="M72 432q-20 28 -57 36q86 8 163 8v-76q29 31 75 55t92 24q91 0 140.5 -54t49.5 -134v-131q0 -109 15 -136q12 -18 36 -24h-192q26 7 36 25q14 26 14 144l-1 108v30.5t-2 32.5t-5.5 36.5t-11 32t-18 29.5t-28 18t-39.5 8q-45 0 -91 -25t-70 -57l1 -94l-1 -139
q0 -102 13 -125q11 -19 36 -24h-192q26 5 38 25q14 28 14 137v53.5v51v43t-1 40.5t-2.5 32t-4.5 29t-7 21z" />
    <glyph glyph-name="o" unicode="o" horiz-adv-x="520" 
d="M394 232q0 37 -4.5 70.5t-17.5 75t-43 66t-74 24.5q-135 0 -135 -235q0 -37 4.5 -70.5t17 -74.5t42.5 -65.5t75 -24.5q135 0 135 234zM254 476q105 0 171 -67.5t66 -176.5q0 -108 -63.5 -175t-168.5 -67q-106 0 -171 67.5t-65 175.5q0 106 64 174.5t167 68.5z" />
    <glyph glyph-name="p" unicode="p" horiz-adv-x="562" 
d="M9 469q86 8 163 8v-41q57 40 124 40q105 0 171 -67.5t66 -176.5q0 -107 -68 -174.5t-174 -67.5q-84 0 -122 18l-1 -134q0 -102 11 -125q12 -19 37 -24h-191q25 5 37 25q13 28 13 137q0 28 1 101.5t1 137v133t-3 116t-8 58.5q-20 28 -57 36zM297 468q-69 0 -125 -49
l-3 -400q42 -21 122 -21q44 0 75 25t45 65t19.5 74.5t5.5 69.5q0 37 -4.5 70.5t-17.5 75t-43 66t-74 24.5z" />
    <glyph glyph-name="q" unicode="q" horiz-adv-x="542" 
d="M269 -10q-106 0 -174.5 67.5t-68.5 174.5q0 109 66 176.5t172 67.5q66 0 122 -40v41q80 0 164 -8q-36 -8 -56 -36q-6 -12 -9 -58.5t-3.5 -116t-0.5 -132.5t1 -137.5t1 -101.5q0 -109 15 -137q12 -20 37 -25h-192q25 5 36 24q13 23 13 125l-1 135q-39 -19 -122 -19z
M263 468q-45 0 -75 -24.5t-43 -66t-17.5 -75t-4.5 -70.5q0 -35 5.5 -69.5t19.5 -74.5t45 -65t76 -25q80 0 122 22l-4 400q-57 48 -124 48z" />
    <glyph glyph-name="r" unicode="r" horiz-adv-x="408" 
d="M74 432q-16 27 -56 36q88 8 163 8q0 -80 1 -119q14 47 54.5 81t89.5 34q24 0 45.5 -9t21.5 -29q0 -15 -8.5 -24.5t-20.5 -9.5q-19 0 -41.5 17t-43.5 17h-7q-25 -2 -43.5 -26t-28 -59t-14 -63t-5.5 -52q-3 -183 13 -210q12 -19 36 -24h-192q27 5 37 25q6 9 9.5 31.5
t4.5 56.5t1.5 58t0 60t-0.5 38q0 139 -16 163z" />
    <glyph glyph-name="s" unicode="s" horiz-adv-x="430" 
d="M370 359q-7 50 -48 86t-102 36q-41 0 -69 -29.5t-28 -73.5q0 -34 29.5 -57.5t71.5 -38.5t84.5 -32t72 -49.5t29.5 -79.5q0 -69 -62.5 -107.5t-140.5 -38.5q-83 0 -154 45q-1 15 -1 45q0 31 1 47l7 1q11 -53 49 -88.5t98 -35.5q53 0 88 27.5t34 78.5q-1 35 -30.5 58.5
t-71.5 38t-84 32t-71.5 51t-29.5 82.5q0 69 61.5 102.5t136.5 33.5q76 -4 139 -31l1 -23q0 -27 -4 -79z" />
    <glyph glyph-name="t" unicode="t" horiz-adv-x="357" 
d="M11 469q46 1 76.5 15t45 39.5t20 48.5t8.5 58h47v-156h134v-15h-134v-385q0 -58 41 -58q25 0 52 22t33 47l8 -7q-13 -25 -28 -42.5t-27 -26t-27.5 -13.5t-24 -5.5t-22.5 -0.5q-38 0 -68.5 26t-30.5 63v380h-103v10z" />
    <glyph glyph-name="u" unicode="u" horiz-adv-x="577" 
d="M62 425q-29 39 -53 44h154l-6 -192l-1 -94q0 -30 3 -55t13.5 -56.5t35 -49.5t62.5 -18q86 1 144 91v88l2 81q0 24 1 53t1 39.5t-1 25t-3.5 23t-7.5 19.5q-27 39 -52 44h150l-6 -203q-2 -167 7 -206q3 -12 7 -20q20 -28 56 -36q-84 -8 -155 -8v78q-58 -82 -146 -82
t-141 46t-52 132v107q2 78 0.5 100.5t-12.5 48.5z" />
    <glyph glyph-name="v" unicode="v" horiz-adv-x="480" 
d="M177 465q-34 -10 -34 -50q0 -22 13 -64.5t34 -93t40 -93t38 -83.5t21 -46q7 21 71.5 180t69.5 196q1 12 -3 20.5t-14 14t-18.5 8.5t-22 6t-18.5 5l161 -1q-32 -12 -55.5 -54.5t-61.5 -139.5l-109 -273h-77l-140 333q-3 6 -10.5 26t-11.5 28.5t-12.5 25t-17 25t-21 17.5
t-27.5 13h205z" />
    <glyph glyph-name="w" unicode="w" horiz-adv-x="787" 
d="M171 465q-34 -10 -34 -50q0 -35 30.5 -118t68.5 -170t40 -92q8 26 54 140.5t63 165.5q-1 2 -6 16.5t-6.5 18t-6.5 16t-8 17t-8.5 14.5t-10.5 14.5t-12.5 11t-15.5 10t-17 6.5h200q-34 -10 -34 -50q0 -27 20.5 -87.5t43.5 -116t48 -112.5t28 -64q7 22 69 180.5t67 195.5
q1 12 -2.5 20.5t-13.5 14t-17.5 8.5t-22 6.5t-18.5 4.5l156 -1q-22 -8 -42.5 -38t-32 -57.5t-39.5 -98.5l-104 -273h-75l-132 325l-20 -52l-105 -273h-73l-135 333q-2 6 -9.5 26t-11 28.5t-12 25t-16.5 25t-20.5 17.5t-26.5 13h199z" />
    <glyph glyph-name="x" unicode="x" horiz-adv-x="495" 
d="M7 0q28 2 65 36.5t87.5 97t58.5 71.5q-11 17 -37.5 65t-47 82t-52 68.5t-61.5 44.5h181q-18 -5 -18 -23q0 -9 19 -44.5t45 -79.5t30 -51q3 3 26.5 32t40 50t34 47.5t19.5 38.5q2 10 -6 18.5t-19 11.5h116q-18 -4 -26 -7q-15 -4 -83.5 -83.5t-97.5 -117.5q6 -9 43 -71
t67 -106t48 -58q17 -13 45 -22h-193q19 7 19 31q0 13 -36.5 78.5t-51.5 85.5q-106 -121 -124 -164q-4 -9 2.5 -18t17.5 -13h-111z" />
    <glyph glyph-name="y" unicode="y" horiz-adv-x="480" 
d="M72 330q-5 10 -17 39t-19.5 43t-24.5 30.5t-39 22.5h205q-34 -10 -34 -50q0 -35 31 -108t72 -150.5t43 -81.5q9 28 73 164t68 172q1 12 -3 20.5t-14 14t-18.5 8.5t-22.5 6t-19 5l162 -1q-14 -5 -25 -15.5t-23 -31.5t-20 -37.5t-23.5 -52.5t-25.5 -57l-147 -321
q-57 -127 -118 -212q-15 -21 -36 -21q-19 0 -33 17q-8 8 -12 21.5t-2.5 24.5t7.5 11h1l2 -1q13 -5 23 -5q73 0 158 187z" />
    <glyph glyph-name="z" unicode="z" horiz-adv-x="483" 
d="M36 367q-9 55 -10 98h433l-321 -459h119q120 0 152 21q25 20 29 72h7q8 -68 9 -99h-417v3l313 456h-125q-27 0 -41.5 -0.5t-39 -3t-39 -8.5t-30.5 -15.5t-24 -26t-10 -38.5h-5z" />
    <glyph glyph-name="braceleft" unicode="{" horiz-adv-x="358" 
d="M24 305v25l6 1q43 9 76 32.5t33 57.5q0 19 -11 72q-3 12 -9 38q-4 16 -4 38q0 73 60 124.5t137 60.5l9 1v-29l-7 -1q-46 -5 -79 -33.5t-33 -70.5q0 -25 9.5 -75t9.5 -75q0 -52 -39 -92t-95 -62q134 -53 134 -153q0 -25 -9.5 -74t-9.5 -75q0 -43 33 -71.5t79 -33.5l7 -1
v-28l-9 1q-77 8 -137 59t-60 125q0 22 4 39q6 24 9 37q11 53 11 72q0 34 -33 57.5t-76 32.5z" />
    <glyph glyph-name="bar" unicode="|" horiz-adv-x="292" 
d="M170 774v-921l-58 14v921z" />
    <glyph glyph-name="braceright" unicode="}" horiz-adv-x="359" 
d="M37 -91l7 1q46 5 79.5 33.5t33.5 71.5q0 26 -10 75t-10 74q0 101 135 153q-57 22 -96 62t-39 92q0 25 10 75t10 75q0 42 -33.5 70.5t-79.5 33.5l-7 1v29l9 -1q77 -9 137 -60.5t60 -124.5q0 -22 -4 -38q-2 -16 -8 -38q-12 -58 -12 -72q0 -35 33 -58t77 -32l6 -1v-25l-6 -1
q-44 -9 -77 -32.5t-33 -57.5q0 -14 12 -72q7 -29 8 -37q4 -17 4 -39q0 -74 -60 -125t-137 -59l-9 -1v28z" />
    <glyph glyph-name="asciitilde" unicode="~" horiz-adv-x="575" 
d="M423 316q-13 -18 -21 -28t-23.5 -18.5t-34.5 -8.5q-25 0 -66 20.5t-73 20.5q-31 0 -54 -43l-22 25q27 55 79 55q24 0 71.5 -20.5t64.5 -20.5q12 0 24 8t17 14t16 21z" />
    <glyph glyph-name="exclamdown" unicode="&#xa1;" horiz-adv-x="258" 
d="M78 625q-21 0 -35.5 13t-14.5 32q0 20 14.5 33t35.5 13q22 0 35.5 -13t13.5 -33q0 -19 -14 -32t-35 -13zM78 0q-19 0 -30 11.5t-11 29.5q0 43 3.5 91.5t9.5 107t8 90.5q13 165 13 198h16q2 -75 17.5 -238t15.5 -249q0 -18 -11 -29.5t-31 -11.5z" />
    <glyph glyph-name="cent" unicode="&#xa2;" horiz-adv-x="557" 
d="M337 697h26l-15 -149q55 -4 112 -26l6 -69q-49 66 -120 79l-40 -406q18 -7 41 -7q65 0 130 45l4 -6q-83 -59 -178 -59l-17 -170h-25l17 172q-92 12 -153 70.5t-61 147.5q0 105 78 167t180 63zM321 536q-76 0 -115 -45.5t-39 -124.5q0 -85 32.5 -144.5t81.5 -85.5z" />
    <glyph glyph-name="sterling" unicode="&#xa3;" horiz-adv-x="567" 
d="M41 312v14h76q-32 92 -32 136q0 93 78 147t180 54q83 0 159 -23l-5 -96h-6q-61 108 -153 108q-68 0 -108 -51.5t-40 -119.5q0 -77 38 -155h159v-14h-150q23 -55 23 -103q0 -17 -3 -33t-5.5 -27.5t-9.5 -26t-10.5 -22t-13 -20.5t-12 -16.5t-13.5 -16.5l-11 -13
q11 7 50.5 16t54.5 9q33 0 96 -16.5t96 -16.5q35 0 90 21l2 -3q-67 -59 -135 -59q-37 0 -106 21.5t-105 21.5q-28 0 -79 -17t-76 -33l-12 20q50 27 80 69.5t30 96.5q0 58 -40 145z" />
    <glyph glyph-name="yen" unicode="&#xa5;" horiz-adv-x="640" 
d="M186 696q-23 -7 -23 -29q0 -39 164 -299l17 -26l28 -44l21 44l13 26q101 201 117 256q7 22 7 34q0 29 -29 38h142q-28 -6 -42 -13q-39 -17 -180 -315h97v-26h-110l-20 -44h130v-26h-139v-50q0 -8 -0.5 -31.5t-0.5 -39t1.5 -39t6 -40t12 -33t21.5 -26.5t32 -13h-234
q23 6 38 23t20.5 45t7 47t1.5 47l-2 110h-150v26h139l-27 44h-112v26h94q-44 80 -65 115q0 1 -11.5 20t-16 26.5t-17 27.5t-20.5 31t-20.5 29t-22 28t-21 22t-22 18.5t-20.5 9.5z" />
    <glyph glyph-name="section" unicode="&#xa7;" horiz-adv-x="575" 
d="M418 190q0 24 -10 46.5t-22 37.5t-35 32.5t-37 26t-40 23.5q-46 0 -79.5 -29.5t-33.5 -76.5q0 -48 21.5 -78t67.5 -58q70 -43 93 -50q44 11 59.5 41.5t15.5 84.5zM418 -147q0 38 -25 70.5t-63 54t-82 47.5t-82 50.5t-63 63t-25 84.5q0 109 174 145q-7 5 -32 20.5t-34 22
t-29 21.5t-28.5 26.5t-20 28.5t-16 35.5t-4.5 39.5q0 67 60 105.5t132 38.5q22 0 50 -4.5t58 -14t50 -28t20 -42.5q0 -12 -10.5 -19.5t-22.5 -7.5q-14 0 -28.5 16.5t-26.5 36t-35.5 36t-52.5 16.5q-52 0 -81.5 -29.5t-29.5 -84.5q0 -27 10 -50t31.5 -41.5t38 -30t47 -28.5
t42.5 -24q37 -19 61 -34.5t49.5 -39t38.5 -54t13 -67.5q0 -65 -36.5 -98.5t-108.5 -59.5q43 -25 70 -45t51 -55.5t24 -76.5q0 -80 -67.5 -123.5t-153.5 -43.5q-23 0 -51 4t-60 13.5t-53 27.5t-21 43q0 12 10 20t23 8q14 0 29 -16.5t27.5 -36t36.5 -36t54 -16.5
q142 0 142 132z" />
    <glyph glyph-name="dieresis" unicode="&#xa8;" horiz-adv-x="400" 
d="M236 613q0 14 8.5 23t22.5 9t23 -10t9 -24t-9.5 -23.5t-22.5 -9.5q-14 0 -22.5 10.5t-8.5 24.5zM101 613q0 14 8.5 23t23.5 9q13 0 22 -10t9 -24t-9 -23.5t-22 -9.5h-1q-14 0 -22.5 10.5t-8.5 24.5z" />
    <glyph glyph-name="copyright" unicode="&#xa9;" horiz-adv-x="705" 
d="M55 241q0 122 89.5 209.5t212.5 87.5q121 0 212 -89t91 -209q0 -122 -90 -209t-213 -87q-125 0 -213.5 87t-88.5 210zM357 -14q107 0 180 73.5t73 180.5t-73.5 181t-179.5 74q-105 0 -180.5 -75t-75.5 -180q0 -97 68.5 -175.5t187.5 -78.5zM367 403q16 0 35.5 -2.5
t42 -8.5t37.5 -18.5t15 -29.5q0 -30 -37 -30q-19 0 -32 13q-2 1 -9 11q-1 2 -3.5 6t-3.5 6q-16 25 -45 25q-52 0 -73.5 -40.5t-21.5 -98.5q0 -52 23.5 -94.5t77.5 -42.5q66 0 91 43v2l2 6h39l-8 -12q-4 -4 -5 -6q-2 -4 -6 -10l-8 -11q-39 -46 -116 -46q-82 0 -125 51.5
t-43 115.5q0 69 42 120t131 51z" />
    <glyph glyph-name="ordfeminine" unicode="&#xaa;" horiz-adv-x="376" 
d="M41 348q0 35 29 60.5t64.5 35.5t71.5 10q24 0 48 -6v18q0 48 -12 77t-50 29q-30 0 -44 -34l-8 -14q-4 -7 -7 -12q-7 -12 -32 -12q-33 0 -33 24q0 29 46.5 45t83.5 16q56 0 89.5 -30t33.5 -80v-2l-1 -125q0 -67 7 -79q4 -6 11 -8q3 -1 7.5 -3t5.5 -2q-2 0 -4 -2l-11 -8
h-128q-39 0 -73.5 7.5t-64 32t-29.5 62.5zM212 440q-44 0 -72 -24t-28 -68t26 -66.5t70 -22.5q14 0 23 1q9 2 14 7q9 11 9 166h6q-22 7 -48 7z" />
    <glyph glyph-name="guillemotleft" unicode="&#xab;" horiz-adv-x="423" 
d="M212 253q0 16 13 31l126 116q6 7 15 7q4 0 4 -12q0 -14 -11 -27l-98 -127l98 -128q11 -14 11 -27q0 -14 -4 -14q-8 0 -15 7l-126 117q-13 15 -13 30v27zM58 253q0 16 13 31l126 116q6 7 15 7q4 0 4 -12q0 -14 -11 -27l-98 -127l98 -128q11 -14 11 -27q0 -14 -4 -14
q-8 0 -15 7l-126 117q-13 15 -13 30v27z" />
    <glyph glyph-name="registered" unicode="&#xae;" horiz-adv-x="623" 
d="M309 274q91 0 153.5 63t62.5 154t-62.5 153.5t-153.5 62.5q-90 0 -153 -63t-63 -153q0 -92 62.5 -154.5t153.5 -62.5zM309 746q105 0 183 -75t78 -180q0 -106 -77 -180.5t-184 -74.5q-106 0 -183 75.5t-77 180.5t77.5 179.5t182.5 74.5zM274 470h11q33 0 59 19t26 52
q0 41 -24.5 55t-70.5 15zM274 444q0 -38 7 -50q7 -4 16 -4l-3 -22h-88l-3 22q9 0 16 4l5 169q0 39 -6 50q-5 4 -15 4l3 22h91q47 0 86 -24t39 -68q0 -35 -23 -59.5t-58 -35.5q2 -1 16.5 -23.5t27.5 -23.5h4q12 0 21 7t18.5 19.5t14.5 17.5q-1 -2 -4.5 -14.5t-4.5 -15.5
t-5 -13t-6.5 -13t-8 -10t-11 -9t-13.5 -4.5t-17 -2.5q-18 0 -32.5 12t-22 26.5t-19 26.5t-24.5 12h-1z" />
    <glyph glyph-name="macron" unicode="&#xaf;" horiz-adv-x="380" 
d="M304 585q13 0 13 -5q0 -8 -6 -22q-4 -10 -7 -12t-14 -2h-220q-8 0 -8 4q0 2 7 21q4 14 7 15q2 1 9 1h219z" />
    <glyph glyph-name="degree" unicode="&#xb0;" horiz-adv-x="419" 
d="M210 676q-30 0 -50.5 -20t-20.5 -51q0 -30 20.5 -50t50.5 -20t50 19.5t20 50.5t-20 51t-50 20zM210 712q48 0 79 -30t31 -77t-31 -77t-79 -30q-49 0 -80 30.5t-31 77.5t31 76.5t80 29.5z" />
    <glyph glyph-name="uni00B2" unicode="&#xb2;" horiz-adv-x="356" 
d="M44 235v7l3 3q14 17 57 55h-1q16 13 32 29q118 100 118 164q0 33 -18.5 61t-47.5 28q-30 0 -52 -21t-31 -53l-2 -5l-30 -2l1 5q8 44 43 71.5t85 27.5t85 -29t35 -75q0 -70 -165 -186l-9 -7q-38 -30 -44 -36h165q15 0 21.5 7t9.5 26v2h28l-5 -72h-278z" />
    <glyph glyph-name="uni00B3" unicode="&#xb3;" horiz-adv-x="305" 
d="M106 418l4 3q38 29 58.5 56t20.5 65q0 47 -41 47q-25 0 -49 -19.5t-32 -46.5l-2 -5l-26 7q8 36 44.5 60t77.5 24q36 0 63 -18t27 -49q0 -46 -58 -85h-4q45 -3 72.5 -29t27.5 -68q0 -59 -51 -96.5t-116 -37.5q-31 0 -64.5 16t-33.5 43q0 8 8.5 15t20.5 7q20 0 26 -19
q4 -11 7 -16q17 -31 50 -31q39 0 64 29.5t25 70.5q0 33 -14.5 60t-41.5 27q-17 0 -42 -16h1l-10 -6z" />
    <glyph glyph-name="acute" unicode="&#xb4;" horiz-adv-x="360" 
d="M205 553q-5 1 -20 12l-96 77q-1 1 -7 5t-7.5 5.5t-7 6.5t-5.5 7.5t-3 8.5t0 9q3 16 21 16q13 -2 35 -29l84 -95q0 -1 4 -4.5t6 -7t2 -6.5q-2 -6 -5 -6z" />
    <glyph glyph-name="periodcentered" unicode="&#xb7;" horiz-adv-x="370" 
d="M186 312q31 0 51.5 -20.5t20.5 -49.5q0 -30 -20.5 -50t-51.5 -20t-52.5 20.5t-21.5 49.5t21.5 49.5t52.5 20.5z" />
    <glyph glyph-name="cedilla" unicode="&#xb8;" horiz-adv-x="320" 
d="M168 10l-47 -70q18 2 32 2q113 0 113 -71q0 -28 -14 -48t-36 -29t-38.5 -12.5t-30.5 -3.5q-27 0 -57 9.5t-30 31.5q0 8 5 14.5t13 6.5q10 0 18 -11t20.5 -22.5t32.5 -11.5q17 0 33 4.5t31.5 21t15.5 44.5q0 20 -18 32t-36.5 15t-39.5 3q-9 0 -23 -1.5t-20 -1.5
q-8 0 -8 10q0 2 12 20l46 68h26z" />
    <glyph glyph-name="uni00B9" unicode="&#xb9;" horiz-adv-x="240" 
d="M154 598l2 -4l1 -1v-8v-121q-1 -40 -1 -121q0 -79 14 -93q6 -7 21 -9l-1 -6h-121v7q8 0 8 1l3 2q18 7 18 64v218q0 8 -1 10l-1 6q-5 0 -24 -13q-1 -1 -3.5 -2.5t-3.5 -2.5q-2 -2 -8 -5l-3 -3q-2 -2 -11 -2q-14 0 -14 5l3 3q9 5 56 43q10 8 15 11q31 25 39 25q10 0 12 -4z
" />
    <glyph glyph-name="ordmasculine" unicode="&#xba;" horiz-adv-x="356" 
d="M346 411q0 -73 -44 -122.5t-122 -49.5q-77 0 -123 50.5t-46 122.5q0 73 44 123t122 50t123.5 -50.5t45.5 -123.5zM178 572q-27 0 -47 -15t-30.5 -39.5t-15 -51t-4.5 -54.5t5 -54t15.5 -51t31 -40t47.5 -15q51 0 74 48.5t23 110.5q0 63 -23.5 112t-75.5 49z" />
    <glyph glyph-name="guillemotright" unicode="&#xbb;" horiz-adv-x="423" 
d="M211 226q0 -15 -13 -30l-126 -117q-7 -7 -15 -7q-4 0 -4 14q0 13 11 27l98 128l-98 127q-11 13 -11 27q0 12 4 12q9 0 15 -7l126 -116q13 -15 13 -31v-27zM365 226q0 -15 -13 -30l-126 -117q-7 -7 -15 -7q-4 0 -4 14q0 13 11 27l98 128l-98 127q-11 13 -11 27q0 12 4 12
q9 0 15 -7l126 -116q13 -15 13 -31v-27z" />
    <glyph glyph-name="questiondown" unicode="&#xbf;" horiz-adv-x="392" 
d="M186 528q0 -44 -14.5 -81.5t-35.5 -65.5t-41.5 -56.5t-35 -69t-14.5 -89.5q0 -153 106 -153q35 0 67.5 13.5t32.5 44.5q0 13 -15 33t-15 36q0 44 47 44q24 0 36 -18.5t12 -43.5q0 -60 -50 -89.5t-119 -32.5q-91 0 -153.5 40.5t-62.5 127.5q0 49 22.5 89.5t55 69
t65.5 54.5t59 58.5t30 67.5q1 9 1 55h22v-34zM175 640q-17 0 -29 12t-12 28q0 17 11.5 30t29.5 13q19 0 31.5 -12.5t12.5 -30.5q0 -17 -12.5 -28.5t-31.5 -11.5z" />
    <glyph glyph-name="Agrave" unicode="&#xc0;" 
d="M-4 1q18 6 34.5 22.5t30.5 44.5t22.5 48.5t20.5 55t15 42.5l170 482h101l180 -482q6 -13 25 -62t37.5 -86t35.5 -52q9 -8 33 -14l-240 -2q22 1 35.5 8t17 20.5t3 28t-6.5 34.5t-12.5 36t-14.5 36.5t-12 31.5l-2 8l-20 53q-44 -36 -142 -36h-35q-103 0 -147 -42l-28 -90
q-10 -37 -3.5 -58t24.5 -27h-122zM132 198q42 32 147 32h9q36 0 57 1.5t49.5 10.5t49.5 26l-148 398zM374 752q-3 0 -5 6q0 3 2 6.5t6 7t4 4.5l84 95q22 27 35 29q18 0 21 -16q3 -3 0 -9t-3 -8.5t-5.5 -7.5t-7 -6.5t-7.5 -5.5t-7 -5l-96 -77q-15 -11 -20 -12z" />
    <glyph glyph-name="Aacute" unicode="&#xc1;" 
d="M-4 1q18 6 34.5 22.5t30.5 44.5t22.5 48.5t20.5 55t15 42.5l170 482h101l180 -482q6 -13 25 -62t37.5 -86t35.5 -52q9 -8 33 -14l-240 -2q22 1 35.5 8t17 20.5t3 28t-6.5 34.5t-12.5 36t-14.5 36.5t-12 31.5l-2 8l-20 53q-44 -36 -142 -36h-35q-103 0 -147 -42l-28 -90
q-10 -37 -3.5 -58t24.5 -27h-122zM132 198q42 32 147 32h9q36 0 57 1.5t49.5 10.5t49.5 26l-148 398zM347 753q-5 1 -20 12l-96 77q-1 1 -7 5t-7.5 5.5t-7 6.5t-5.5 7.5t-3 8.5t0 9q3 16 21 16q13 -2 35 -29l84 -95q0 -1 4 -4.5t6 -7t2 -6.5q-2 -6 -5 -6z" />
    <glyph glyph-name="Acircumflex" unicode="&#xc2;" 
d="M-4 1q18 6 34.5 22.5t30.5 44.5t22.5 48.5t20.5 55t15 42.5l170 482h101l180 -482q6 -13 25 -62t37.5 -86t35.5 -52q9 -8 33 -14l-240 -2q22 1 35.5 8t17 20.5t3 28t-6.5 34.5t-12.5 36t-14.5 36.5t-12 31.5l-2 8l-20 53q-44 -36 -142 -36h-35q-103 0 -147 -42l-28 -90
q-10 -37 -3.5 -58t24.5 -27h-122zM132 198q42 32 147 32h9q36 0 57 1.5t49.5 10.5t49.5 26l-148 398zM370 915q14 0 25 -11l94 -103q6 -5 6 -12q0 -3 -10 -3q-11 0 -22 9l-103 80l-104 -80q-10 -9 -22 -9q-11 0 -11 3q0 6 6 12l95 103q11 11 24 11h22z" />
    <glyph glyph-name="Atilde" unicode="&#xc3;" 
d="M-4 1q18 6 34.5 22.5t30.5 44.5t22.5 48.5t20.5 55t15 42.5l170 482h101l180 -482q6 -13 25 -62t37.5 -86t35.5 -52q9 -8 33 -14l-240 -2q22 1 35.5 8t17 20.5t3 28t-6.5 34.5t-12.5 36t-14.5 36.5t-12 31.5l-2 8l-20 53q-44 -36 -142 -36h-35q-103 0 -147 -42l-28 -90
q-10 -37 -3.5 -58t24.5 -27h-122zM132 198q42 32 147 32h9q36 0 57 1.5t49.5 10.5t49.5 26l-148 398zM422 772q-30 0 -78 34t-70 34q-18 0 -32 -15t-21.5 -29.5t-10.5 -14.5q-8 0 -10 7q1 31 33 59t63 28t80 -34t68 -34q18 0 32 14.5t21.5 29.5t10.5 15q8 0 10 -7
q-1 -31 -33 -59t-63 -28z" />
    <glyph glyph-name="Adieresis" unicode="&#xc4;" 
d="M-4 1q18 6 34.5 22.5t30.5 44.5t22.5 48.5t20.5 55t15 42.5l170 482h101l180 -482q6 -13 25 -62t37.5 -86t35.5 -52q9 -8 33 -14l-240 -2q22 1 35.5 8t17 20.5t3 28t-6.5 34.5t-12.5 36t-14.5 36.5t-12 31.5l-2 8l-20 53q-44 -36 -142 -36h-35q-103 0 -147 -42l-28 -90
q-10 -37 -3.5 -58t24.5 -27h-122zM132 198q42 32 147 32h9q36 0 57 1.5t49.5 10.5t49.5 26l-148 398zM395 813q0 14 8.5 23t22.5 9t23 -10t9 -24t-9.5 -23.5t-22.5 -9.5q-14 0 -22.5 10.5t-8.5 24.5zM260 813q0 14 8.5 23t23.5 9q13 0 22 -10t9 -24t-9 -23.5t-22 -9.5h-1
q-14 0 -22.5 10.5t-8.5 24.5z" />
    <glyph glyph-name="Aring" unicode="&#xc5;" 
d="M-4 1q18 6 34.5 22.5t30.5 44.5t22.5 48.5t20.5 55t15 42.5l170 482h101l180 -482q6 -13 25 -62t37.5 -86t35.5 -52q9 -8 33 -14l-240 -2q22 1 35.5 8t17 20.5t3 28t-6.5 34.5t-12.5 36t-14.5 36.5t-12 31.5l-2 8l-20 53q-44 -36 -142 -36h-35q-103 0 -147 -42l-28 -90
q-10 -37 -3.5 -58t24.5 -27h-122zM132 198q42 32 147 32h9q36 0 57 1.5t49.5 10.5t49.5 26l-148 398zM358 757q-28 0 -47.5 20t-19.5 48q0 29 19.5 48.5t48.5 19.5t48.5 -19.5t19.5 -48.5t-19.5 -48.5t-48.5 -19.5h-1zM360 787q15 0 26 11t11 27t-11 27t-27 11t-27 -11
t-11 -27t11 -27t27 -11h1z" />
    <glyph glyph-name="AE" unicode="&#xc6;" horiz-adv-x="969" 
d="M-70 1q19 5 42 23t40.5 36t44 51.5t38 50.5t37.5 53l346 481h452v-104h-6q-15 51 -66 70q-63 24 -269 24v-364h30h23h64q62 0 84 16.5t28 80.5h5v-201h-5q-3 66 -34.5 80.5t-131.5 14.5h-11h-10.5h-11.5h-30v-179q0 -121 61 -123q18 -1 61 -1q232 0 251 99h7v-109h-333
l-232 -2q19 0 33 7.5t22.5 22t14 29t8 37.5t3.5 37.5t1.5 38.5t0.5 32v58q-25 -12 -56 -12q-27 0 -82.5 14.5t-83.5 14.5q-42 0 -77 -24l-43 -59l-73 -108q-23 -34 -24 -58t14 -27h-132zM203 274q29 15 62 15q27 0 82 -14t83 -14q32 0 57 12q-1 64 -1 195.5t-1 195.5z" />
    <glyph glyph-name="Ccedilla" unicode="&#xc7;" horiz-adv-x="761" 
d="M348 -7q-149 16 -236 113t-87 242q0 158 102.5 257t273.5 101h7q74 0 138.5 -19t96.5 -37.5t73 -49.5v-158l-16 -1q-1 61 -31.5 111.5t-76.5 80.5t-96 46.5t-95 16.5q-69 0 -120.5 -29.5t-80 -80t-42.5 -109.5t-14 -127q0 -135 52 -233t160 -113l4 6h26l-5 -8
q113 0 212.5 73.5t120.5 182.5l18 -7q-17 -99 -111 -179.5t-213 -81.5h-6q-19 0 -29 1l-34 -51q18 2 32 2q113 0 113 -71q0 -28 -14 -48t-36 -29t-38.5 -12.5t-30.5 -3.5q-27 0 -57 9.5t-30 31.5q0 8 5 14.5t13 6.5q10 0 18 -11t20.5 -22.5t32.5 -11.5q17 0 33 4.5t31.5 21
t15.5 44.5q0 20 -18 32t-36.5 15t-39.5 3q-9 0 -23 -1.5t-20 -1.5q-8 0 -8 10q0 2 12 20z" />
    <glyph glyph-name="Egrave" unicode="&#xc8;" horiz-adv-x="599" 
d="M23 0q20 4 37 17q29 24 29 205v285q0 148 -29 173q-14 11 -33 16h504v-104h-6q-17 52 -66 70q-63 24 -269 24v-364h15h23h64q62 0 84 17t28 80h5v-201h-5q-1 28 -8 45.5t-17 28t-32.5 14.5t-43.5 5t-62 1h-36h-15v-178q2 -48 9 -73q3 -15 17.5 -32t34.5 -18q18 -1 61 -1
q231 0 251 99h6v-109h-546zM310 758q0 3 2 6.5t6 7t4 4.5l84 95q22 27 35 29q18 0 21 -16q3 -3 0 -9t-3 -8.5t-5.5 -7.5t-7 -6.5t-7.5 -5.5t-7 -5l-96 -77q-15 -11 -20 -12l-1 -1q-3 0 -5 6z" />
    <glyph glyph-name="Eacute" unicode="&#xc9;" horiz-adv-x="599" 
d="M23 0q20 4 37 17q29 24 29 205v285q0 148 -29 173q-14 11 -33 16h504v-104h-6q-17 52 -66 70q-63 24 -269 24v-364h15h23h64q62 0 84 17t28 80h5v-201h-5q-1 28 -8 45.5t-17 28t-32.5 14.5t-43.5 5t-62 1h-36h-15v-178q2 -48 9 -73q3 -15 17.5 -32t34.5 -18q18 -1 61 -1
q231 0 251 99h6v-109h-546zM172 842q-1 1 -7 5t-7.5 5.5t-7 6.5t-5.5 7.5t-3 8.5t0 9q3 16 21 16q13 -2 35 -29l84 -95q0 -1 4 -4.5t6 -7t2 -6.5q-2 -6 -5 -6l-1 1q-5 1 -20 12z" />
    <glyph glyph-name="Ecircumflex" unicode="&#xca;" horiz-adv-x="599" 
d="M23 0q20 4 37 17q29 24 29 205v285q0 148 -29 173q-14 11 -33 16h504v-104h-6q-17 52 -66 70q-63 24 -269 24v-364h15h23h64q62 0 84 17t28 80h5v-201h-5q-1 28 -8 45.5t-17 28t-32.5 14.5t-43.5 5t-62 1h-36h-15v-178q2 -48 9 -73q3 -15 17.5 -32t34.5 -18q18 -1 61 -1
q231 0 251 99h6v-109h-546zM175 786q-11 0 -11 3q0 6 6 12l95 103q11 11 24 11h22q14 0 25 -11l94 -103q6 -5 6 -12q0 -3 -10 -3q-12 0 -22 9l-103 80l-104 -80q-10 -9 -22 -9z" />
    <glyph glyph-name="Edieresis" unicode="&#xcb;" horiz-adv-x="599" 
d="M23 0q20 4 37 17q29 24 29 205v285q0 148 -29 173q-14 11 -33 16h504v-104h-6q-17 52 -66 70q-63 24 -269 24v-364h15h23h64q62 0 84 17t28 80h5v-201h-5q-1 28 -8 45.5t-17 28t-32.5 14.5t-43.5 5t-62 1h-36h-15v-178q2 -48 9 -73q3 -15 17.5 -32t34.5 -18q18 -1 61 -1
q231 0 251 99h6v-109h-546zM336 813q0 14 8.5 23t22.5 9t23 -10t9 -24t-9.5 -23.5t-22.5 -9.5q-14 0 -22.5 10.5t-8.5 24.5zM232 778q-14 0 -22.5 10.5t-8.5 24.5t8.5 23t23.5 9q13 0 22 -10t9 -24t-9 -23.5t-22 -9.5h-1z" />
    <glyph glyph-name="Igrave" unicode="&#xcc;" horiz-adv-x="293" 
d="M246 696q-15 -4 -22 -10q-28 -22 -28 -211v-285q0 -152 22 -173q15 -14 33 -17h-204q2 1 5 2t5 1.5t3 1.5q13 7 20 23q12 23 16 100q1 37 1 94v285q0 156 -20 173q-12 10 -31 16h200zM162 752q-3 0 -5 6q0 3 2 6.5t6 7t4 4.5l84 95q22 27 35 29q18 0 21 -16q3 -3 0 -9
t-3 -8.5t-5.5 -7.5t-7 -6.5t-7.5 -5.5t-7 -5l-96 -77q-15 -11 -20 -12z" />
    <glyph glyph-name="Iacute" unicode="&#xcd;" horiz-adv-x="293" 
d="M246 696q-15 -4 -22 -10q-28 -22 -28 -211v-285q0 -152 22 -173q15 -14 33 -17h-204q2 1 5 2t5 1.5t3 1.5q13 7 20 23q12 23 16 100q1 37 1 94v285q0 156 -20 173q-12 10 -31 16h200zM135 753q-5 1 -20 12l-96 77q-1 1 -7 5t-7.5 5.5t-7 6.5t-5.5 7.5t-3 8.5t0 9
q3 16 21 16q13 -2 35 -29l84 -95q0 -1 4 -4.5t6 -7t2 -6.5q-2 -6 -5 -6z" />
    <glyph glyph-name="Icircumflex" unicode="&#xce;" horiz-adv-x="293" 
d="M246 696q-15 -4 -22 -10q-28 -22 -28 -211v-285q0 -152 22 -173q15 -14 33 -17h-204q2 1 5 2t5 1.5t3 1.5q13 7 20 23q12 23 16 100q1 37 1 94v285q0 156 -20 173q-12 10 -31 16h200zM158 915q14 0 25 -11l94 -103q6 -5 6 -12q0 -3 -10 -3q-11 0 -22 9l-103 80l-104 -80
q-11 -9 -22 -9t-11 3q0 6 6 12l95 103q11 11 24 11h22z" />
    <glyph glyph-name="Idieresis" unicode="&#xcf;" horiz-adv-x="293" 
d="M246 696q-15 -4 -22 -10q-28 -22 -28 -211v-285q0 -152 22 -173q15 -14 33 -17h-204q2 1 5 2t5 1.5t3 1.5q13 7 20 23q12 23 16 100q1 37 1 94v285q0 156 -20 173q-12 10 -31 16h200zM183 813q0 14 8.5 23t22.5 9t23 -10t9 -24t-9.5 -23.5t-22.5 -9.5q-14 0 -22.5 10.5
t-8.5 24.5zM48 813q0 14 8.5 23t23.5 9q13 0 22 -10t9 -24t-9 -23.5t-22 -9.5h-1q-14 0 -22.5 10.5t-8.5 24.5z" />
    <glyph glyph-name="Ntilde" unicode="&#xd1;" horiz-adv-x="701" 
d="M681 696q-15 -4 -22 -9q-45 -28 -45 -187v-505h-25l-464 614v-410q0 -158 43 -188q12 -7 28 -11h-158q13 3 27 11q44 30 44 188v301q0 8 0.5 36t0 35.5t-2 29t-5 28.5t-10 21.5t-16 20.5t-23.5 13.5t-33 11.5h167l409 -549l3 339v14q0 158 -45 187q-8 5 -23 9h150z
M414 772q-30 0 -78 34t-70 34q-18 0 -32 -15t-21.5 -29.5t-10.5 -14.5q-8 0 -10 7q1 31 33 59t63 28t80 -34t68 -34q18 0 32 14.5t21.5 29.5t10.5 15q8 0 10 -7q-1 -31 -33 -59t-63 -28z" />
    <glyph glyph-name="Ograve" unicode="&#xd2;" horiz-adv-x="811" 
d="M666 347q0 54 -9 103.5t-29 94.5t-50 78.5t-75 53t-100 19.5q-70 0 -122 -29.5t-80.5 -80t-42 -110t-13.5 -127.5q0 -69 14.5 -129t44.5 -110.5t82.5 -80t122.5 -29.5q56 0 100.5 20t73.5 53t48 78.5t27 93.5t8 102zM783 354q0 -160 -101.5 -262t-272.5 -102
q-170 0 -275.5 103t-105.5 262t101.5 255t273.5 96q171 0 275.5 -96.5t104.5 -255.5zM421 752q-3 0 -5 6q0 3 2 6.5t6 7t4 4.5l84 95q22 27 35 29q18 0 21 -16q3 -3 0 -9t-3 -8.5t-5.5 -7.5t-7 -6.5t-7.5 -5.5t-7 -5l-96 -77q-15 -11 -20 -12z" />
    <glyph glyph-name="Oacute" unicode="&#xd3;" horiz-adv-x="811" 
d="M666 347q0 54 -9 103.5t-29 94.5t-50 78.5t-75 53t-100 19.5q-70 0 -122 -29.5t-80.5 -80t-42 -110t-13.5 -127.5q0 -69 14.5 -129t44.5 -110.5t82.5 -80t122.5 -29.5q56 0 100.5 20t73.5 53t48 78.5t27 93.5t8 102zM783 354q0 -160 -101.5 -262t-272.5 -102
q-170 0 -275.5 103t-105.5 262t101.5 255t273.5 96q171 0 275.5 -96.5t104.5 -255.5zM394 753q-5 1 -20 12l-96 77q-1 1 -7 5t-7.5 5.5t-7 6.5t-5.5 7.5t-3 8.5t0 9q3 16 21 16q13 -2 35 -29l84 -95q0 -1 4 -4.5t6 -7t2 -6.5q-2 -6 -5 -6z" />
    <glyph glyph-name="Ocircumflex" unicode="&#xd4;" horiz-adv-x="811" 
d="M666 347q0 54 -9 103.5t-29 94.5t-50 78.5t-75 53t-100 19.5q-70 0 -122 -29.5t-80.5 -80t-42 -110t-13.5 -127.5q0 -69 14.5 -129t44.5 -110.5t82.5 -80t122.5 -29.5q56 0 100.5 20t73.5 53t48 78.5t27 93.5t8 102zM783 354q0 -160 -101.5 -262t-272.5 -102
q-170 0 -275.5 103t-105.5 262t101.5 255t273.5 96q171 0 275.5 -96.5t104.5 -255.5zM417 915q14 0 25 -11l94 -103q6 -5 6 -12q0 -3 -10 -3q-12 0 -22 9l-103 80l-104 -80q-10 -9 -22 -9q-11 0 -11 3q0 6 6 12l95 103q11 11 24 11h22z" />
    <glyph glyph-name="Otilde" unicode="&#xd5;" horiz-adv-x="811" 
d="M666 347q0 54 -9 103.5t-29 94.5t-50 78.5t-75 53t-100 19.5q-70 0 -122 -29.5t-80.5 -80t-42 -110t-13.5 -127.5q0 -69 14.5 -129t44.5 -110.5t82.5 -80t122.5 -29.5q56 0 100.5 20t73.5 53t48 78.5t27 93.5t8 102zM783 354q0 -160 -101.5 -262t-272.5 -102
q-170 0 -275.5 103t-105.5 262t101.5 255t273.5 96q171 0 275.5 -96.5t104.5 -255.5zM469 772q-30 0 -78 34t-70 34q-18 0 -32 -15t-21.5 -29.5t-10.5 -14.5q-8 0 -10 7q1 31 33 59t63 28t80 -34t68 -34q18 0 32 14.5t21.5 29.5t10.5 15q8 0 10 -7q-1 -31 -33 -59t-63 -28z
" />
    <glyph glyph-name="Odieresis" unicode="&#xd6;" horiz-adv-x="811" 
d="M666 347q0 54 -9 103.5t-29 94.5t-50 78.5t-75 53t-100 19.5q-70 0 -122 -29.5t-80.5 -80t-42 -110t-13.5 -127.5q0 -69 14.5 -129t44.5 -110.5t82.5 -80t122.5 -29.5q56 0 100.5 20t73.5 53t48 78.5t27 93.5t8 102zM783 354q0 -160 -101.5 -262t-272.5 -102
q-170 0 -275.5 103t-105.5 262t101.5 255t273.5 96q171 0 275.5 -96.5t104.5 -255.5zM442 813q0 14 8.5 23t22.5 9t23 -10t9 -24t-9.5 -23.5t-22.5 -9.5q-14 0 -22.5 10.5t-8.5 24.5zM307 813q0 14 8.5 23t23.5 9q13 0 22 -10t9 -24t-9 -23.5t-22 -9.5h-1q-14 0 -22.5 10.5
t-8.5 24.5z" />
    <glyph glyph-name="multiply" unicode="&#xd7;" horiz-adv-x="575" 
d="M257 362l-107 107l31 31l106 -106l110 110l31 -30l-111 -111l107 -107l-30 -31l-107 107l-110 -110l-30 30z" />
    <glyph glyph-name="Oslash" unicode="&#xd8;" horiz-adv-x="811" 
d="M28 355q0 159 101.5 255t273.5 96q51 0 97 -9l21 64h38l-24 -73q115 -33 181.5 -121t66.5 -213q0 -160 -101.5 -262t-272.5 -102q-46 0 -98 10l-16 -48h-45l20 59q-112 38 -177 129.5t-65 214.5zM316 15q43 -16 93 -16q56 0 100.5 20t73.5 53t48 78.5t27 94t8 102.5
q0 104 -34.5 190t-104.5 127zM145 349q0 -103 33 -187.5t100 -127.5l216 646q-43 16 -91 16q-70 0 -122 -29.5t-80.5 -80t-42 -110t-13.5 -127.5z" />
    <glyph glyph-name="Ugrave" unicode="&#xd9;" horiz-adv-x="715" 
d="M242 696q-13 -4 -21 -11q-14 -10 -20 -23q-10 -21 -14 -94q-1 -37 -1 -93v-216q0 -114 47.5 -185t135.5 -71q120 0 179.5 74.5t59.5 194.5v226q0 55 -4 85q-3 24 -5 37t-9 31.5t-19.5 29.5t-32.5 15h157q-17 -4 -27 -11q-44 -26 -44 -187v-224q0 -130 -66.5 -205
t-198.5 -79q-134 0 -204 69.5t-70 204.5v243q0 147 -28 172q-14 12 -37 17h222zM368 758q0 3 2 6.5t6 7t4 4.5l84 95q22 27 35 29q18 0 21 -16q3 -3 0 -9t-3 -8.5t-5.5 -7.5t-7 -6.5t-7.5 -5.5t-7 -5l-96 -77q-15 -11 -20 -12l-1 -1q-3 0 -5 6z" />
    <glyph glyph-name="Uacute" unicode="&#xda;" horiz-adv-x="715" 
d="M242 696q-13 -4 -21 -11q-14 -10 -20 -23q-10 -21 -14 -94q-1 -37 -1 -93v-216q0 -114 47.5 -185t135.5 -71q120 0 179.5 74.5t59.5 194.5v226q0 55 -4 85q-3 24 -5 37t-9 31.5t-19.5 29.5t-32.5 15h157q-17 -4 -27 -11q-44 -26 -44 -187v-224q0 -130 -66.5 -205
t-198.5 -79q-134 0 -204 69.5t-70 204.5v243q0 147 -28 172q-14 12 -37 17h222zM230 842q-1 1 -7 5t-7.5 5.5t-7 6.5t-5.5 7.5t-3 8.5t0 9q3 16 21 16q13 -2 35 -29l84 -95q0 -1 4 -4.5t6 -7t2 -6.5q-2 -6 -5 -6l-1 1q-5 1 -20 12z" />
    <glyph glyph-name="Ucircumflex" unicode="&#xdb;" horiz-adv-x="715" 
d="M242 696q-13 -4 -21 -11q-14 -10 -20 -23q-10 -21 -14 -94q-1 -37 -1 -93v-216q0 -114 47.5 -185t135.5 -71q120 0 179.5 74.5t59.5 194.5v226q0 55 -4 85q-3 24 -5 37t-9 31.5t-19.5 29.5t-32.5 15h157q-17 -4 -27 -11q-44 -26 -44 -187v-224q0 -130 -66.5 -205
t-198.5 -79q-134 0 -204 69.5t-70 204.5v243q0 147 -28 172q-14 12 -37 17h222zM233 786q-11 0 -11 3q0 6 6 12l95 103q11 11 24 11h22q14 0 25 -11l94 -103q6 -5 6 -12q0 -3 -10 -3q-12 0 -22 9l-103 80l-104 -80q-11 -9 -22 -9z" />
    <glyph glyph-name="Udieresis" unicode="&#xdc;" horiz-adv-x="715" 
d="M57 679q-14 12 -37 17h222q-13 -4 -21 -11q-14 -10 -20 -23q-10 -21 -14 -94q-1 -37 -1 -93v-216q0 -114 47.5 -185t135.5 -71q120 0 179.5 74.5t59.5 194.5v226q0 55 -4 85q-3 24 -5 37t-9 31.5t-19.5 29.5t-32.5 15h157q-17 -4 -27 -11q-44 -26 -44 -187v-224
q0 -130 -66.5 -205t-198.5 -79q-134 0 -204 69.5t-70 204.5v243q0 147 -28 172zM394 813q0 14 8.5 23t22.5 9t23 -10t9 -24t-9.5 -23.5t-22.5 -9.5q-14 0 -22.5 10.5t-8.5 24.5zM259 813q0 14 8.5 23t23.5 9q13 0 22 -10t9 -24t-9 -23.5t-22 -9.5h-1q-14 0 -22.5 10.5
t-8.5 24.5z" />
    <glyph glyph-name="Yacute" unicode="&#xdd;" horiz-adv-x="685" 
d="M15 696h198q-24 -7 -24 -29q0 -46 202 -371q12 30 56.5 113t77 152.5t32.5 96.5q0 29 -29 38h142q-36 -8 -42 -13q-15 -13 -42 -56.5t-56.5 -99.5t-55 -107.5t-46.5 -95t-22 -45.5v-57q0 -8 -0.5 -31.5t-0.5 -39t1.5 -39t6 -40t12 -33t21.5 -26.5t32 -13h-233q23 6 38 23
t20.5 45t7 47t1.5 47v106q-24 38 -70.5 121.5t-52.5 93.5q-2 3 -16 26.5t-22 36.5t-24 37t-28 39t-27 32.5t-29 27.5t-26 13h1zM297 873q-1 1 -7 5t-7.5 5.5t-7 6.5t-5.5 7.5t-3 8.5t0 9q3 16 21 16q13 -2 35 -29l84 -95q0 -1 4 -4.5t6 -7t2 -6.5q-2 -6 -5 -6l-1 1
q-5 1 -20 12z" />
    <glyph glyph-name="germandbls" unicode="&#xdf;" horiz-adv-x="602" 
d="M33 0q26 5 37 25q15 29 15 141q5 297 7 336q4 106 73 173t173 67q36 0 69 -7.5t63.5 -24.5t49 -50t18.5 -78q0 -77 -112 -105q-9 -2 -33 -6.5t-38.5 -8t-32 -10t-26 -16.5t-8.5 -23q0 -20 22.5 -35.5t73.5 -34.5t64 -25q58 -28 91.5 -64t33.5 -96q0 -73 -55 -121.5
t-126 -48.5q-68 0 -120 34q-11 6 -13 15t-2 37v55l1 30q1 0 5 -16.5t12.5 -41t22 -48.5t39 -41t57.5 -17q92 0 92 134q0 42 -23 70.5t-56 45.5t-65.5 33.5t-55.5 45t-23 68.5q0 20 5.5 33t20.5 21t23 11t31 9q48 12 71.5 41.5t23.5 87.5q0 73 -26 104t-79 31
q-42 0 -73 -18.5t-46.5 -42.5t-24.5 -62.5t-11 -64t-3 -61.5l-8 -318q0 -115 12 -139q9 -18 36 -24h-182z" />
    <glyph glyph-name="agrave" unicode="&#xe0;" horiz-adv-x="501" 
d="M32 141q0 70 61.5 108.5t163.5 38.5q44 0 91 -14v37q0 32 -3 55.5t-13 49t-33 39.5t-57 14q-57 0 -83 -57l-2.5 -5t-2.5 -4q-1 -5 -6 -10l-9 -15q-8 -13 -28 -13q-31 0 -31 30q0 28 34.5 48t71.5 26.5t66 6.5q36 0 79 -10t65 -29q43 -42 43 -116l-1 -180q0 -93 12 -117
q12 -19 36 -24h-221q-44 0 -79 4.5t-73 18t-59.5 43.5t-21.5 75zM270 280q-46 0 -77 -12t-46 -33t-21 -43.5t-6 -50.5q0 -29 5 -50t19.5 -42t45 -32t75.5 -11q51 0 65 15l2 4q14 28 14 123l1 120q-46 12 -77 12zM266 552q-3 0 -5 6q0 3 2 6.5t6 7t4 4.5l84 95q22 27 35 29
q18 0 21 -16q3 -3 0 -9t-3 -8.5t-5.5 -7.5t-7 -6.5t-7.5 -5.5t-7 -5l-96 -77q-15 -11 -20 -12z" />
    <glyph glyph-name="aacute" unicode="&#xe1;" horiz-adv-x="501" 
d="M32 141q0 70 61.5 108.5t163.5 38.5q44 0 91 -14v37q0 32 -3 55.5t-13 49t-33 39.5t-57 14q-57 0 -83 -57l-2.5 -5t-2.5 -4q-1 -5 -6 -10l-9 -15q-8 -13 -28 -13q-31 0 -31 30q0 28 34.5 48t71.5 26.5t66 6.5q36 0 79 -10t65 -29q43 -42 43 -116l-1 -180q0 -93 12 -117
q12 -19 36 -24h-221q-44 0 -79 4.5t-73 18t-59.5 43.5t-21.5 75zM270 280q-46 0 -77 -12t-46 -33t-21 -43.5t-6 -50.5q0 -29 5 -50t19.5 -42t45 -32t75.5 -11q51 0 65 15l2 4q14 28 14 123l1 120q-46 12 -77 12zM239 553q-5 1 -20 12l-96 77q-1 1 -7 5t-7.5 5.5t-7 6.5
t-5.5 7.5t-3 8.5t0 9q3 16 21 16q13 -2 35 -29l84 -95q0 -1 4 -4.5t6 -7t2 -6.5q-2 -6 -5 -6z" />
    <glyph glyph-name="acircumflex" unicode="&#xe2;" horiz-adv-x="501" 
d="M32 141q0 70 61.5 108.5t163.5 38.5q44 0 91 -14v37q0 32 -3 55.5t-13 49t-33 39.5t-57 14q-57 0 -83 -57l-2.5 -5t-2.5 -4q-1 -5 -6 -10l-9 -15q-8 -13 -28 -13q-31 0 -31 30q0 28 34.5 48t71.5 26.5t66 6.5q36 0 79 -10t65 -29q43 -42 43 -116l-1 -180q0 -93 12 -117
q12 -19 36 -24h-221q-44 0 -79 4.5t-73 18t-59.5 43.5t-21.5 75zM270 280q-46 0 -77 -12t-46 -33t-21 -43.5t-6 -50.5q0 -29 5 -50t19.5 -42t45 -32t75.5 -11q51 0 65 15l2 4q14 28 14 123l1 120q-46 12 -77 12zM262 715q14 0 25 -11l94 -103q6 -5 6 -12q0 -3 -10 -3
q-11 0 -22 9l-103 80l-104 -80q-11 -9 -22 -9t-11 3q0 6 6 12l95 103q11 11 24 11h22z" />
    <glyph glyph-name="atilde" unicode="&#xe3;" horiz-adv-x="501" 
d="M32 141q0 70 61.5 108.5t163.5 38.5q44 0 91 -14v37q0 32 -3 55.5t-13 49t-33 39.5t-57 14q-57 0 -83 -57l-2.5 -5t-2.5 -4q-1 -5 -6 -10l-9 -15q-8 -13 -28 -13q-31 0 -31 30q0 28 34.5 48t71.5 26.5t66 6.5q36 0 79 -10t65 -29q43 -42 43 -116l-1 -180q0 -93 12 -117
q12 -19 36 -24h-221q-44 0 -79 4.5t-73 18t-59.5 43.5t-21.5 75zM270 280q-46 0 -77 -12t-46 -33t-21 -43.5t-6 -50.5q0 -29 5 -50t19.5 -42t45 -32t75.5 -11q51 0 65 15l2 4q14 28 14 123l1 120q-46 12 -77 12zM314 572q-30 0 -78 34t-70 34q-18 0 -32 -15t-21.5 -29.5
t-10.5 -14.5q-8 0 -10 7q1 31 33 59t63 28t80 -34t68 -34q18 0 32 14.5t21.5 29.5t10.5 15q8 0 10 -7q-1 -31 -33 -59t-63 -28z" />
    <glyph glyph-name="adieresis" unicode="&#xe4;" horiz-adv-x="501" 
d="M32 141q0 70 61.5 108.5t163.5 38.5q44 0 91 -14v37q0 32 -3 55.5t-13 49t-33 39.5t-57 14q-57 0 -83 -57l-2.5 -5t-2.5 -4q-1 -5 -6 -10l-9 -15q-8 -13 -28 -13q-31 0 -31 30q0 28 34.5 48t71.5 26.5t66 6.5q36 0 79 -10t65 -29q43 -42 43 -116l-1 -180q0 -93 12 -117
q12 -19 36 -24h-221q-44 0 -79 4.5t-73 18t-59.5 43.5t-21.5 75zM270 280q-46 0 -77 -12t-46 -33t-21 -43.5t-6 -50.5q0 -29 5 -50t19.5 -42t45 -32t75.5 -11q51 0 65 15l2 4q14 28 14 123l1 120q-46 12 -77 12zM287 613q0 14 8.5 23t22.5 9t23 -10t9 -24t-9.5 -23.5
t-22.5 -9.5q-14 0 -22.5 10.5t-8.5 24.5zM152 613q0 14 8.5 23t23.5 9q13 0 22 -10t9 -24t-9 -23.5t-22 -9.5h-1q-14 0 -22.5 10.5t-8.5 24.5z" />
    <glyph glyph-name="aring" unicode="&#xe5;" horiz-adv-x="501" 
d="M32 141q0 70 61.5 108.5t163.5 38.5q44 0 91 -14v37q0 32 -3 55.5t-13 49t-33 39.5t-57 14q-57 0 -83 -57l-2.5 -5t-2.5 -4q-1 -5 -6 -10l-9 -15q-8 -13 -28 -13q-31 0 -31 30q0 28 34.5 48t71.5 26.5t66 6.5q36 0 79 -10t65 -29q43 -42 43 -116l-1 -180q0 -93 12 -117
q12 -19 36 -24h-221q-44 0 -79 4.5t-73 18t-59.5 43.5t-21.5 75zM270 280q-46 0 -77 -12t-46 -33t-21 -43.5t-6 -50.5q0 -29 5 -50t19.5 -42t45 -32t75.5 -11q51 0 65 15l2 4q14 28 14 123l1 120q-46 12 -77 12zM250 557q-28 0 -47.5 20t-19.5 48q0 29 19.5 48.5t48.5 19.5
t48.5 -19.5t19.5 -48.5t-19.5 -48.5t-48.5 -19.5h-1zM252 587q15 0 26 11t11 27t-11 27t-27 11t-27 -11t-11 -27t11 -27t27 -11h1z" />
    <glyph glyph-name="ae" unicode="&#xe6;" horiz-adv-x="820" 
d="M252 0q-44 0 -79 4.5t-73 18t-59.5 43.5t-21.5 75q0 70 61.5 108.5t163.5 38.5q44 0 91 -14v37q0 32 -3 55.5t-13 49t-33 39.5t-57 14q-57 0 -83 -57q-4 -6 -5 -9q-2 -4 -6 -10q-2 -2 -3.5 -4.5t-3 -5.5l-2.5 -5q-10 -13 -28 -13q-31 0 -31 30q0 28 34.5 48t71.5 26.5
t66 6.5q36 0 79 -10t65 -29q10 -10 20 -25q64 64 172 64q104 0 167 -66t65 -172h-371q0 -39 3 -69.5t13.5 -63t28 -53.5t49 -35t74.5 -14q51 0 103.5 31t82.5 80h7q-24 -57 -84.5 -90.5t-124.5 -33.5q-89 0 -154 42q2 -6 3 -8q12 -19 36 -24h-221zM107 141q0 -29 5 -50
t19.5 -42t45 -32t75.5 -11q51 0 65 15l2 4q14 28 14 123l1 58q-1 7 -1 21q0 21 1 31q1 3 1 10q-48 12 -78 12q-46 0 -77 -12t-46 -33t-21 -43.5t-6 -50.5zM580 466q-120 0 -143 -218h272q-2 38 -6 67t-16 68t-39.5 61t-67.5 22z" />
    <glyph glyph-name="ccedilla" unicode="&#xe7;" horiz-adv-x="472" 
d="M34 228q0 108 65.5 178t173.5 70q51 0 106.5 -18t55.5 -57q0 -26 -32 -26q-17 0 -30 15t-20.5 33t-28 33t-50.5 15q-133 0 -133 -236q0 -38 6.5 -74.5t21 -74t43.5 -60.5t69 -23q46 0 87 20.5t64 57.5h10q-49 -91 -175 -91q-19 0 -37 3l-36 -53q18 2 32 2q113 0 113 -71
q0 -28 -14 -48t-36 -29t-38.5 -12.5t-30.5 -3.5q-27 0 -57 9.5t-30 31.5q0 8 5 14.5t13 6.5q10 0 18 -11t20.5 -22.5t32.5 -11.5q17 0 33 4.5t31.5 21t15.5 44.5q0 20 -18 32t-36.5 15t-39.5 3q-9 0 -23 -1.5t-20 -1.5q-8 0 -8 10q0 2 12 20l38 56q-77 20 -125 84t-48 146z
" />
    <glyph glyph-name="egrave" unicode="&#xe8;" horiz-adv-x="521" 
d="M281 466q-120 0 -143 -218h272q-2 38 -6 67t-16 68t-39.5 61t-67.5 22zM137 238q0 -39 3 -69.5t13.5 -63t28 -53.5t49 -35t74.5 -14q51 0 103.5 31t82.5 80h7q-24 -57 -84.5 -90.5t-124.5 -33.5q-112 0 -183.5 64.5t-71.5 172.5q0 112 65 180.5t177 68.5q104 0 167 -66
t65 -172h-371zM276 552q-3 0 -5 6q0 3 2 6.5t6 7t4 4.5l84 95q22 27 35 29q18 0 21 -16q3 -3 0 -9t-3 -8.5t-5.5 -7.5t-7 -6.5t-7.5 -5.5t-7 -5l-96 -77q-15 -11 -20 -12z" />
    <glyph glyph-name="eacute" unicode="&#xe9;" horiz-adv-x="521" 
d="M281 466q-120 0 -143 -218h272q-2 38 -6 67t-16 68t-39.5 61t-67.5 22zM137 238q0 -39 3 -69.5t13.5 -63t28 -53.5t49 -35t74.5 -14q51 0 103.5 31t82.5 80h7q-24 -57 -84.5 -90.5t-124.5 -33.5q-112 0 -183.5 64.5t-71.5 172.5q0 112 65 180.5t177 68.5q104 0 167 -66
t65 -172h-371zM249 553q-5 1 -20 12l-96 77q-1 1 -7 5t-7.5 5.5t-7 6.5t-5.5 7.5t-3 8.5t0 9q3 16 21 16q13 -2 35 -29l84 -95q0 -1 4 -4.5t6 -7t2 -6.5q-2 -6 -5 -6z" />
    <glyph glyph-name="ecircumflex" unicode="&#xea;" horiz-adv-x="521" 
d="M281 466q-120 0 -143 -218h272q-2 38 -6 67t-16 68t-39.5 61t-67.5 22zM137 238q0 -39 3 -69.5t13.5 -63t28 -53.5t49 -35t74.5 -14q51 0 103.5 31t82.5 80h7q-24 -57 -84.5 -90.5t-124.5 -33.5q-112 0 -183.5 64.5t-71.5 172.5q0 112 65 180.5t177 68.5q104 0 167 -66
t65 -172h-371zM272 715q14 0 25 -11l94 -103q6 -5 6 -12q0 -3 -10 -3q-11 0 -22 9l-103 80l-104 -80q-10 -9 -22 -9q-11 0 -11 3q0 6 6 12l95 103q11 11 24 11h22z" />
    <glyph glyph-name="edieresis" unicode="&#xeb;" horiz-adv-x="521" 
d="M281 466q-120 0 -143 -218h272q-2 38 -6 67t-16 68t-39.5 61t-67.5 22zM137 238q0 -39 3 -69.5t13.5 -63t28 -53.5t49 -35t74.5 -14q51 0 103.5 31t82.5 80h7q-24 -57 -84.5 -90.5t-124.5 -33.5q-112 0 -183.5 64.5t-71.5 172.5q0 112 65 180.5t177 68.5q104 0 167 -66
t65 -172h-371zM297 613q0 14 8.5 23t22.5 9t23 -10t9 -24t-9.5 -23.5t-22.5 -9.5q-14 0 -22.5 10.5t-8.5 24.5zM162 613q0 14 8.5 23t23.5 9q13 0 22 -10t9 -24t-9 -23.5t-22 -9.5h-1q-14 0 -22.5 10.5t-8.5 24.5z" />
    <glyph glyph-name="igrave" unicode="&#xec;" horiz-adv-x="275" 
d="M76 432q-18 28 -55 36q84 8 162 8l1 -188l-1 -139q0 -102 13 -125q11 -19 36 -24h-192q26 5 37 25q15 28 15 137v53.5v51v43t-1 40.5t-3 32t-5 29t-7 21zM153 552q-3 0 -5 6q0 3 2 6.5t6 7t4 4.5l84 95q22 27 35 29q18 0 21 -16q3 -3 0 -9t-3 -8.5t-5.5 -7.5t-7 -6.5
t-7.5 -5.5t-7 -5l-96 -77q-15 -11 -20 -12z" />
    <glyph glyph-name="iacute" unicode="&#xed;" horiz-adv-x="275" 
d="M76 432q-18 28 -55 36q84 8 162 8l1 -188l-1 -139q0 -102 13 -125q11 -19 36 -24h-192q26 5 37 25q15 28 15 137v53.5v51v43t-1 40.5t-3 32t-5 29t-7 21zM126 553q-5 1 -20 12l-96 77q-1 1 -7 5t-7.5 5.5t-7 6.5t-5.5 7.5t-3 8.5t0 9q3 16 21 16q13 -2 35 -29l84 -95
q0 -1 4 -4.5t6 -7t2 -6.5q-2 -6 -5 -6z" />
    <glyph glyph-name="icircumflex" unicode="&#xee;" horiz-adv-x="275" 
d="M76 432q-18 28 -55 36q84 8 162 8l1 -188l-1 -139q0 -102 13 -125q11 -19 36 -24h-192q26 5 37 25q15 28 15 137v53.5v51v43t-1 40.5t-3 32t-5 29t-7 21zM149 715q14 0 25 -11l94 -103q6 -5 6 -12q0 -3 -10 -3q-12 0 -22 9l-103 80l-104 -80q-11 -9 -22 -9t-11 3
q0 6 6 12l95 103q11 11 24 11h22z" />
    <glyph glyph-name="idieresis" unicode="&#xef;" horiz-adv-x="275" 
d="M76 432q-18 28 -55 36q84 8 162 8l1 -188l-1 -139q0 -102 13 -125q11 -19 36 -24h-192q26 5 37 25q15 28 15 137v53.5v51v43t-1 40.5t-3 32t-5 29t-7 21zM174 613q0 14 8.5 23t22.5 9t23 -10t9 -24t-9.5 -23.5t-22.5 -9.5q-14 0 -22.5 10.5t-8.5 24.5zM39 613
q0 14 8.5 23t23.5 9q13 0 22 -10t9 -24t-9 -23.5t-22 -9.5h-1q-14 0 -22.5 10.5t-8.5 24.5z" />
    <glyph glyph-name="ntilde" unicode="&#xf1;" horiz-adv-x="592" 
d="M72 432q-20 28 -57 36q86 8 163 8v-76q29 31 75 55t92 24q91 0 140.5 -54t49.5 -134v-131q0 -109 15 -136q12 -18 36 -24h-192q26 7 36 25q14 26 14 144l-1 108v30.5t-2 32.5t-5.5 36.5t-11 32t-18 29.5t-28 18t-39.5 8q-45 0 -91 -25t-70 -57l1 -94l-1 -139
q0 -102 13 -125q11 -19 36 -24h-192q26 5 38 25q14 28 14 137v53.5v51v43t-1 40.5t-2.5 32t-4.5 29t-7 21zM137 588q1 31 33 59t63 28t80 -34t68 -34q18 0 32 14.5t21.5 29.5t10.5 15q8 0 10 -7q-1 -31 -33 -59t-63 -28q-30 0 -78 34t-70 34q-18 0 -32 -15t-21.5 -29.5
t-10.5 -14.5q-8 0 -10 7z" />
    <glyph glyph-name="ograve" unicode="&#xf2;" horiz-adv-x="520" 
d="M394 232q0 37 -4.5 70.5t-17.5 75t-43 66t-74 24.5q-135 0 -135 -235q0 -37 4.5 -70.5t17 -74.5t42.5 -65.5t75 -24.5q135 0 135 234zM254 476q105 0 171 -67.5t66 -176.5q0 -108 -63.5 -175t-168.5 -67q-106 0 -171 67.5t-65 175.5q0 106 64 174.5t167 68.5zM276 552
q-3 0 -5 6q0 3 2 6.5t6 7t4 4.5l84 95q22 27 35 29q18 0 21 -16q3 -3 0 -9t-3 -8.5t-5.5 -7.5t-7 -6.5t-7.5 -5.5t-7 -5l-96 -77q-15 -11 -20 -12z" />
    <glyph glyph-name="oacute" unicode="&#xf3;" horiz-adv-x="520" 
d="M394 232q0 37 -4.5 70.5t-17.5 75t-43 66t-74 24.5q-135 0 -135 -235q0 -37 4.5 -70.5t17 -74.5t42.5 -65.5t75 -24.5q135 0 135 234zM254 476q105 0 171 -67.5t66 -176.5q0 -108 -63.5 -175t-168.5 -67q-106 0 -171 67.5t-65 175.5q0 106 64 174.5t167 68.5zM249 553
q-5 1 -20 12l-96 77q-1 1 -7 5t-7.5 5.5t-7 6.5t-5.5 7.5t-3 8.5t0 9q3 16 21 16q13 -2 35 -29l84 -95q0 -1 4 -4.5t6 -7t2 -6.5q-2 -6 -5 -6z" />
    <glyph glyph-name="ocircumflex" unicode="&#xf4;" horiz-adv-x="520" 
d="M394 232q0 37 -4.5 70.5t-17.5 75t-43 66t-74 24.5q-135 0 -135 -235q0 -37 4.5 -70.5t17 -74.5t42.5 -65.5t75 -24.5q135 0 135 234zM254 476q105 0 171 -67.5t66 -176.5q0 -108 -63.5 -175t-168.5 -67q-106 0 -171 67.5t-65 175.5q0 106 64 174.5t167 68.5zM271 715
q14 0 25 -11l94 -103q6 -5 6 -12q0 -3 -10 -3q-12 0 -22 9l-103 80l-104 -80q-11 -9 -22 -9t-11 3q0 6 6 12l95 103q11 11 24 11h22z" />
    <glyph glyph-name="otilde" unicode="&#xf5;" horiz-adv-x="520" 
d="M394 232q0 37 -4.5 70.5t-17.5 75t-43 66t-74 24.5q-135 0 -135 -235q0 -37 4.5 -70.5t17 -74.5t42.5 -65.5t75 -24.5q135 0 135 234zM254 476q105 0 171 -67.5t66 -176.5q0 -108 -63.5 -175t-168.5 -67q-106 0 -171 67.5t-65 175.5q0 106 64 174.5t167 68.5zM323 572
q-30 0 -78 34t-70 34q-18 0 -32 -15t-21.5 -29.5t-10.5 -14.5q-8 0 -10 7q1 31 33 59t63 28t80 -34t68 -34q18 0 32 14.5t21.5 29.5t10.5 15q8 0 10 -7q-1 -31 -33 -59t-63 -28z" />
    <glyph glyph-name="odieresis" unicode="&#xf6;" horiz-adv-x="520" 
d="M394 232q0 37 -4.5 70.5t-17.5 75t-43 66t-74 24.5q-135 0 -135 -235q0 -37 4.5 -70.5t17 -74.5t42.5 -65.5t75 -24.5q135 0 135 234zM254 476q105 0 171 -67.5t66 -176.5q0 -108 -63.5 -175t-168.5 -67q-106 0 -171 67.5t-65 175.5q0 106 64 174.5t167 68.5zM296 613
q0 14 8.5 23t22.5 9t23 -10t9 -24t-9.5 -23.5t-22.5 -9.5q-14 0 -22.5 10.5t-8.5 24.5zM161 613q0 14 8.5 23t23.5 9q13 0 22 -10t9 -24t-9 -23.5t-22 -9.5h-1q-14 0 -22.5 10.5t-8.5 24.5z" />
    <glyph glyph-name="oslash" unicode="&#xf8;" horiz-adv-x="520" 
d="M23 233q0 106 64 174.5t167 68.5q48 0 89 -15l18 37h44l-26 -54q53 -31 82.5 -85.5t29.5 -126.5q0 -108 -63.5 -175t-168.5 -67q-51 0 -94 17l-30 -62h-45l39 80q-50 31 -78 85t-28 123zM177 30q34 -32 82 -32q135 0 135 234q0 111 -34 173zM332 440q-31 28 -77 28
q-135 0 -135 -235q0 -105 30 -165z" />
    <glyph glyph-name="ugrave" unicode="&#xf9;" horiz-adv-x="577" 
d="M62 425q-29 39 -53 44h154l-6 -192l-1 -94q0 -30 3 -55t13.5 -56.5t35 -49.5t62.5 -18q86 1 144 91v88l2 81q0 24 1 53t1 39.5t-1 25t-3.5 23t-7.5 19.5q-27 39 -52 44h150l-6 -203q-2 -167 7 -206q3 -12 7 -20q20 -28 56 -36q-84 -8 -155 -8v78q-58 -82 -146 -82
t-141 46t-52 132v107q2 78 0.5 100.5t-12.5 48.5zM304 552q-3 0 -5 6q0 3 2 6.5t6 7t4 4.5l84 95q22 27 35 29q18 0 21 -16q3 -3 0 -9t-3 -8.5t-5.5 -7.5t-7 -6.5t-7.5 -5.5t-7 -5l-96 -77q-15 -11 -20 -12z" />
    <glyph glyph-name="uacute" unicode="&#xfa;" horiz-adv-x="577" 
d="M62 425q-29 39 -53 44h154l-6 -192l-1 -94q0 -30 3 -55t13.5 -56.5t35 -49.5t62.5 -18q86 1 144 91v88l2 81q0 24 1 53t1 39.5t-1 25t-3.5 23t-7.5 19.5q-27 39 -52 44h150l-6 -203q-2 -167 7 -206q3 -12 7 -20q20 -28 56 -36q-84 -8 -155 -8v78q-58 -82 -146 -82
t-141 46t-52 132v107q2 78 0.5 100.5t-12.5 48.5zM277 553q-5 1 -20 12l-96 77q-1 1 -7 5t-7.5 5.5t-7 6.5t-5.5 7.5t-3 8.5t0 9q3 16 21 16q13 -2 35 -29l84 -95q0 -1 4 -4.5t6 -7t2 -6.5q-2 -6 -5 -6z" />
    <glyph glyph-name="ucircumflex" unicode="&#xfb;" horiz-adv-x="577" 
d="M62 425q-29 39 -53 44h154l-6 -192l-1 -94q0 -30 3 -55t13.5 -56.5t35 -49.5t62.5 -18q86 1 144 91v88l2 81q0 24 1 53t1 39.5t-1 25t-3.5 23t-7.5 19.5q-27 39 -52 44h150l-6 -203q-2 -167 7 -206q3 -12 7 -20q20 -28 56 -36q-84 -8 -155 -8v78q-58 -82 -146 -82
t-141 46t-52 132v107q2 78 0.5 100.5t-12.5 48.5zM300 715q14 0 25 -11l94 -103q6 -5 6 -12q0 -3 -10 -3q-11 0 -22 9l-103 80l-104 -80q-10 -9 -22 -9q-11 0 -11 3q0 6 6 12l95 103q11 11 24 11h22z" />
    <glyph glyph-name="udieresis" unicode="&#xfc;" horiz-adv-x="577" 
d="M62 425q-29 39 -53 44h154l-6 -192l-1 -94q0 -30 3 -55t13.5 -56.5t35 -49.5t62.5 -18q86 1 144 91v88l2 81q0 24 1 53t1 39.5t-1 25t-3.5 23t-7.5 19.5q-27 39 -52 44h150l-6 -203q-2 -167 7 -206q3 -12 7 -20q20 -28 56 -36q-84 -8 -155 -8v78q-58 -82 -146 -82
t-141 46t-52 132v107q2 78 0.5 100.5t-12.5 48.5zM325 613q0 14 8.5 23t22.5 9t23 -10t9 -24t-9.5 -23.5t-22.5 -9.5q-14 0 -22.5 10.5t-8.5 24.5zM190 613q0 14 8.5 23t23.5 9q13 0 22 -10t9 -24t-9 -23.5t-22 -9.5h-1q-14 0 -22.5 10.5t-8.5 24.5z" />
    <glyph glyph-name="yacute" unicode="&#xfd;" horiz-adv-x="480" 
d="M72 330q-5 10 -17 39t-19.5 43t-24.5 30.5t-39 22.5h205q-34 -10 -34 -50q0 -35 31 -108t72 -150.5t43 -81.5q9 28 73 164t68 172q1 12 -3 20.5t-14 14t-18.5 8.5t-22.5 6t-19 5l162 -1q-14 -5 -25 -15.5t-23 -31.5t-20 -37.5t-23.5 -52.5t-25.5 -57l-147 -321
q-57 -127 -118 -212q-15 -21 -36 -21q-19 0 -33 17q-8 8 -12 21.5t-2.5 24.5t7.5 11h1l2 -1q13 -5 23 -5q73 0 158 187zM310 553q-5 1 -20 12l-96 77q-1 1 -7 5t-7.5 5.5t-7 6.5t-5.5 7.5t-3 8.5t0 9q3 16 21 16q13 -2 35 -29l84 -95q0 -1 4 -4.5t6 -7t2 -6.5q-2 -6 -5 -6z
" />
    <glyph glyph-name="ydieresis" unicode="&#xff;" horiz-adv-x="480" 
d="M72 330q-5 10 -17 39t-19.5 43t-24.5 30.5t-39 22.5h205q-34 -10 -34 -50q0 -35 31 -108t72 -150.5t43 -81.5q9 28 73 164t68 172q1 12 -3 20.5t-14 14t-18.5 8.5t-22.5 6t-19 5l162 -1q-14 -5 -25 -15.5t-23 -31.5t-20 -37.5t-23.5 -52.5t-25.5 -57l-147 -321
q-57 -127 -118 -212q-15 -21 -36 -21q-19 0 -33 17q-8 8 -12 21.5t-2.5 24.5t7.5 11h1l2 -1q13 -5 23 -5q73 0 158 187zM276 613q0 14 8.5 23t22.5 9t23 -10t9 -24t-9.5 -23.5t-22.5 -9.5q-14 0 -22.5 10.5t-8.5 24.5zM141 613q0 14 8.5 23t23.5 9q13 0 22 -10t9 -24
t-9 -23.5t-22 -9.5h-1q-14 0 -22.5 10.5t-8.5 24.5z" />
    <glyph glyph-name="dotlessi" unicode="&#x131;" horiz-adv-x="275" 
d="M76 432q-18 28 -55 36q84 8 162 8l1 -188l-1 -139q0 -102 13 -125q11 -19 36 -24h-192q26 5 37 25q15 28 15 137v53.5v51v43t-1 40.5t-3 32t-5 29t-7 21z" />
    <glyph glyph-name="OE" unicode="&#x152;" horiz-adv-x="1223" 
d="M431 -10q-167 0 -284.5 104.5t-117.5 260.5q0 155 114 253t282 98q107 0 193 -43t136 -119q-5 115 -29 136q-14 11 -33 16h492v-104h-6q-15 51 -66 70q-63 24 -269 24v-364h30h23h64q62 0 84 16.5t28 80.5h5v-201h-5q-3 66 -34.5 80.5t-131.5 14.5h-11h-10.5h-11.5h-30
v-179q0 -121 61 -123q18 -1 61 -1q232 0 251 99h7v-109h-535q20 4 37 17q21 17 28 140q-49 -78 -133 -122.5t-189 -44.5zM137 349q0 -91 31.5 -168.5t100 -129.5t162.5 -52q71 0 124 30t83 80.5t44.5 110t14.5 127.5t-15.5 128.5t-47 111t-85.5 80.5t-124 30q-95 0 -162 -52
t-96.5 -129t-29.5 -167z" />
    <glyph glyph-name="oe" unicode="&#x153;" horiz-adv-x="887" 
d="M7 233q0 102 68 172.5t173 70.5q65 0 119.5 -29.5t82.5 -78.5q60 108 189 108q109 0 171.5 -60.5t64.5 -177.5h-366q0 -46 8 -86t25.5 -74.5t49.5 -54.5t74 -20q51 0 100.5 30t79.5 79h6q-25 -57 -81.5 -89.5t-119.5 -32.5q-135 0 -200 107q-27 -49 -80 -78t-118 -29
q-105 0 -175.5 71t-70.5 172zM249 469q-45 0 -75.5 -22.5t-45 -61t-20 -74.5t-5.5 -78t6 -79t21 -75t46.5 -60.5t76.5 -22.5q131 0 144 207v53q-11 213 -148 213zM644 466q-58 0 -97.5 -67.5t-36.5 -150.5h272q-1 45 -7 79.5t-20 68t-42.5 52t-68.5 18.5z" />
    <glyph glyph-name="Scaron" unicode="&#x160;" horiz-adv-x="611" 
d="M66 304q-22 -124 51.5 -212.5t186.5 -90.5q90 1 141 49t51 125q0 71 -57 119t-146 72q-48 14 -82.5 28t-69 36t-52.5 52.5t-18 69.5q0 46 21.5 78t58 48t75 23t82.5 7q119 0 225 -47q0 -58 -16 -154h-9q11 83 -44 135t-156 55q-126 -3 -136 -126q0 -54 39 -82t113 -49
q46 -13 75.5 -23t68.5 -29.5t61.5 -41.5t38.5 -57t16 -78q0 -96 -82 -159t-199 -62q-45 1 -94.5 12t-100.5 41t-72 72q-5 28 -0.5 85.5t12.5 102.5zM295 752q-15 0 -25 11l-95 119q-6 8 -6 14q0 4 11 4q10 0 22 -10l104 -93l104 93q12 10 22 10q11 0 11 -4q0 -6 -6 -14
l-95 -119q-10 -11 -25 -11h-22z" />
    <glyph glyph-name="scaron" unicode="&#x161;" horiz-adv-x="430" 
d="M370 359q-7 50 -48 86t-102 36q-41 0 -69 -29.5t-28 -73.5q0 -34 29.5 -57.5t71.5 -38.5t84.5 -32t72 -49.5t29.5 -79.5q0 -69 -62.5 -107.5t-140.5 -38.5q-83 0 -154 45q-1 15 -1 45q0 31 1 47l7 1q11 -53 49 -88.5t98 -35.5q53 0 88 27.5t34 78.5q-1 35 -30.5 58.5
t-71.5 38t-84 32t-71.5 51t-29.5 82.5q0 69 61.5 102.5t136.5 33.5q76 -4 139 -31l1 -23q0 -27 -4 -79zM204 521q-15 0 -25 11l-95 119q-6 8 -6 14q0 4 11 4q10 0 22 -10l104 -93l104 93q12 10 22 10q11 0 11 -4q0 -6 -6 -14l-95 -119q-10 -11 -25 -11h-22z" />
    <glyph glyph-name="Ydieresis" unicode="&#x178;" horiz-adv-x="685" 
d="M15 696h198q-24 -7 -24 -29q0 -46 202 -371q12 30 56.5 113t77 152.5t32.5 96.5q0 29 -29 38h142q-36 -8 -42 -13q-15 -13 -42 -56.5t-56.5 -99.5t-55 -107.5t-46.5 -95t-22 -45.5v-57q0 -8 -0.5 -31.5t-0.5 -39t1.5 -39t6 -40t12 -33t21.5 -26.5t32 -13h-233q23 6 38 23
t20.5 45t7 47t1.5 47v106q-24 38 -70.5 121.5t-52.5 93.5q-2 3 -16 26.5t-22 36.5t-24 37t-28 39t-27 32.5t-29 27.5t-26 13h1zM379 813q0 14 8.5 23t22.5 9t23 -10t9 -24t-9.5 -23.5t-22.5 -9.5q-14 0 -22.5 10.5t-8.5 24.5zM244 813q0 14 8.5 23t23.5 9q13 0 22 -10t9 -24
t-9 -23.5t-22 -9.5h-1q-14 0 -22.5 10.5t-8.5 24.5z" />
    <glyph glyph-name="Zcaron" unicode="&#x17d;" horiz-adv-x="633" 
d="M58 696h555v-16l-490 -669q74 -2 135 -2q276 0 313 92h6v-101h-557v20l490 666h-64q-181 0 -273 -18t-108 -78h-7v106zM306 752q-15 0 -25 11l-95 119q-6 8 -6 14q0 4 11 4q10 0 22 -10l104 -93l104 93q12 10 22 10q11 0 11 -4q0 -6 -6 -14l-95 -119q-10 -11 -25 -11h-22
z" />
    <glyph glyph-name="zcaron" unicode="&#x17e;" horiz-adv-x="483" 
d="M36 367q-9 55 -10 98h433l-321 -459h119q120 0 152 21q25 20 29 72h7q8 -68 9 -99h-417v3l313 456h-125q-27 0 -41.5 -0.5t-39 -3t-39 -8.5t-30.5 -15.5t-24 -26t-10 -38.5h-5zM231 521q-15 0 -25 11l-95 119q-6 8 -6 14q0 4 11 4q10 0 22 -10l104 -93l104 93
q12 10 22 10q11 0 11 -4q0 -6 -6 -14l-95 -119q-10 -11 -25 -11h-22z" />
    <glyph glyph-name="circumflex" unicode="&#x2c6;" horiz-adv-x="418" 
d="M210 715q14 0 25 -11l94 -103q6 -5 6 -12q0 -3 -10 -3q-11 0 -22 9l-103 80l-104 -80q-11 -9 -22 -9t-11 3q0 6 6 12l95 103q11 11 24 11h22z" />
    <glyph glyph-name="caron" unicode="&#x2c7;" horiz-adv-x="420" 
d="M199 521q-15 0 -25 11l-95 119q-6 8 -6 14q0 4 11 4q10 0 22 -10l104 -93l104 93q12 10 22 10q11 0 11 -4q0 -6 -6 -14l-95 -119q-10 -11 -25 -11h-22z" />
    <glyph glyph-name="breve" unicode="&#x2d8;" horiz-adv-x="400" 
d="M199 521q-53 0 -88 41t-35 84q0 17 10 17q11 0 14 -16q15 -76 100 -76q84 0 100 76q3 16 14 16q10 0 10 -17q0 -43 -35 -84t-89 -41h-1z" />
    <glyph glyph-name="dotaccent" unicode="&#x2d9;" horiz-adv-x="220" 
d="M110 523q-20 0 -31.5 14t-11.5 35q0 20 12 34.5t32 14.5q19 0 31.5 -14.5t12.5 -34.5t-12 -34.5t-32 -14.5h-1z" />
    <glyph glyph-name="ring" unicode="&#x2da;" horiz-adv-x="280" 
d="M138 557q-28 0 -47.5 20t-19.5 48q0 29 19.5 48.5t48.5 19.5t48.5 -19.5t19.5 -48.5t-19.5 -48.5t-48.5 -19.5h-1zM140 587q15 0 26 11t11 27t-11 27t-27 11t-27 -11t-11 -27t11 -27t27 -11h1z" />
    <glyph glyph-name="ogonek" unicode="&#x2db;" horiz-adv-x="300" 
d="M187 0q-84 -50 -84 -104q0 -18 13.5 -29t30.5 -11q22 0 49.5 17t31.5 17q7 0 7 -8q0 -11 -36 -31t-63 -20q-33 0 -53.5 16.5t-20.5 47.5q0 32 33.5 62.5t69.5 42.5h22z" />
    <glyph glyph-name="tilde" unicode="&#x2dc;" horiz-adv-x="447" 
d="M279 572q-30 0 -78 34t-70 34q-18 0 -32 -15t-21.5 -29.5t-10.5 -14.5q-8 0 -10 7q1 31 33 59t63 28t80 -34t68 -34q18 0 32 14.5t21.5 29.5t10.5 15q8 0 10 -7q-1 -31 -33 -59t-63 -28z" />
    <glyph glyph-name="endash" unicode="&#x2013;" horiz-adv-x="400" 
d="M0 249v52l400 3v-52z" />
    <glyph glyph-name="emdash" unicode="&#x2014;" horiz-adv-x="741" 
d="M0 249v52l742 3v-52z" />
    <glyph glyph-name="quoteleft" unicode="&#x2018;" horiz-adv-x="220" 
d="M155 680q7 0 7 -8q0 -2 -4 -7t-13 -14.5t-15 -16.5q-37 -45 -37 -81q0 -25 30 -25q35 -2 35 -37q0 -19 -11.5 -31.5t-29.5 -12.5q-27 0 -41 22.5t-14 50.5q0 38 20 77t41.5 61t30.5 22h1z" />
    <glyph glyph-name="quoteright" unicode="&#x2019;" horiz-adv-x="220" 
d="M64 597q0 18 11.5 30t29.5 12q26 0 40.5 -22.5t14.5 -50.5q0 -37 -20 -76.5t-41.5 -61.5t-30.5 -22q-8 0 -8 9q0 2 4.5 6.5t13 14t14.5 17.5q37 45 37 81q0 25 -30 25q-35 0 -35 37v1z" />
    <glyph glyph-name="quotesinglbase" unicode="&#x201a;" horiz-adv-x="220" 
d="M67 26q0 18 11.5 30t29.5 12q26 0 40.5 -22.5t14.5 -50.5q0 -53 -37 -106t-55 -53q-8 0 -8 8q0 2 4.5 6.5t13 14t14.5 17.5q37 45 37 81q0 25 -30 25q-35 0 -35 37v1z" />
    <glyph glyph-name="quotedblleft" unicode="&#x201c;" horiz-adv-x="380" 
d="M62 521q0 53 37 106t55 53h1q7 0 7 -7q0 -2 -4 -7t-13 -14.5t-15 -17.5q-37 -43 -37 -81q0 -25 30 -25q35 0 35 -37q0 -19 -11.5 -31.5t-29.5 -12.5q-27 0 -41 22.5t-14 51.5zM218 520q0 38 20 77t41.5 61t30.5 22h1q7 0 7 -8q0 -2 -4 -7t-13 -14.5t-15 -16.5
q-37 -45 -37 -81q0 -25 30 -25q35 -2 35 -37q0 -19 -11.5 -31.5t-29.5 -12.5q-27 0 -41 22.5t-14 50.5z" />
    <glyph glyph-name="quotedblright" unicode="&#x201d;" horiz-adv-x="380" 
d="M66 597q0 18 11.5 30t29.5 12q26 0 40.5 -22.5t14.5 -50.5q0 -37 -20 -76.5t-41.5 -61.5t-30.5 -22q-8 0 -8 9q0 2 4.5 6.5t13 14t14.5 17.5q37 45 37 81q0 25 -30 25q-35 0 -35 37v1zM222 596q0 19 11 31t30 12q26 0 40.5 -22.5t14.5 -50.5q0 -38 -20 -77t-41.5 -61
t-30.5 -22q-8 0 -8 8q0 2 4 7t13 14.5t15 16.5q37 45 37 81q0 25 -30 25q-35 2 -35 37v1z" />
    <glyph glyph-name="quotedblbase" unicode="&#x201e;" horiz-adv-x="360" 
d="M67 26q0 18 11.5 30t29.5 12q26 0 40.5 -22.5t14.5 -50.5q0 -53 -37 -106t-55 -53q-8 0 -8 8q0 2 4.5 6.5t13 14t14.5 17.5q37 45 37 81q0 25 -30 25q-35 0 -35 37v1zM210 26q0 18 11.5 30t30.5 12q26 0 40.5 -22.5t14.5 -50.5q0 -38 -20.5 -77.5t-42.5 -61t-30 -21.5
t-8 8q0 2 4 7t13 14.5t15 16.5q37 45 37 82q0 23 -29 25q-36 0 -36 37v1z" />
    <glyph glyph-name="dagger" unicode="&#x2020;" horiz-adv-x="516" 
d="M250 -164v41v46t-0.5 42.5t-2 47t-3.5 42.5t-5.5 46t-8.5 40.5t-12 41.5q32 54 32 244q-53 0 -104 -15t-62 -15q-17 0 -28 10t-11 27t11 27t28 10q12 0 64 -15.5t102 -15.5q0 75 -16.5 123.5t-16.5 58.5q0 18 12 29t30 11t30 -11t12 -29q0 -10 -16.5 -58.5t-16.5 -123.5
q47 0 101 15.5t65 15.5q17 0 28 -10t11 -27t-11 -27t-28 -10t-68 15t-98 15q0 -186 34 -244q-17 -48 -25 -118t-8.5 -107.5t-0.5 -121.5h-18z" />
    <glyph glyph-name="bullet" unicode="&#x2022;" horiz-adv-x="370" 
d="M186 412q31 0 51.5 -20.5t20.5 -49.5q0 -30 -20.5 -50t-51.5 -20t-52.5 20.5t-21.5 49.5t21.5 49.5t52.5 20.5z" />
    <glyph glyph-name="ellipsis" unicode="&#x2026;" horiz-adv-x="555" 
d="M93 81q21 0 35 -13t14 -32q0 -20 -14 -33t-35 -13q-22 0 -35.5 13t-13.5 33q0 19 14 32t35 13zM278 81q21 0 35 -13t14 -32q0 -20 -14 -33t-35 -13q-22 0 -35.5 13t-13.5 33q0 19 14 32t35 13zM463 81q21 0 35 -13t14 -32q0 -20 -14 -33t-35 -13q-22 0 -35.5 13t-13.5 33
q0 19 14 32t35 13z" />
    <glyph glyph-name="guilsinglleft" unicode="&#x2039;" horiz-adv-x="268" 
d="M58 253q0 16 13 31l126 116q6 7 15 7q4 0 4 -12q0 -14 -11 -27l-98 -127l98 -128q11 -14 11 -27q0 -14 -4 -14q-8 0 -15 7l-126 117q-13 15 -13 30v27z" />
    <glyph glyph-name="guilsinglright" unicode="&#x203a;" horiz-adv-x="268" 
d="M210 226q0 -15 -13 -30l-126 -117q-7 -7 -15 -7q-4 0 -4 14q0 13 11 27l98 128l-98 127q-11 13 -11 27q0 12 4 12q9 0 15 -7l126 -116q13 -15 13 -31v-27z" />
    <glyph glyph-name="Euro" unicode="&#x20ac;" horiz-adv-x="585" 
d="M12 343v13h53q11 129 95.5 218t200.5 89q82 0 159 -23l-5 -96h-6q-61 108 -153 108q-48 0 -84.5 -29t-57 -76t-31 -94.5t-13.5 -96.5h297v-13h-298q0 -25 2 -77h296v-13h-295q5 -49 16.5 -92t32 -83t55.5 -63.5t80 -23.5q92 0 153 108h6l5 -96q-77 -23 -159 -23
q-127 0 -201 75.5t-91 197.5h-57v13h55q-3 28 -3 57q0 13 1 20h-53z" />
    <glyph glyph-name="fi" unicode="&#xfb01;" horiz-adv-x="655" 
d="M21 435h93q0 39 0.5 63t4.5 60.5t11 59t21 48.5t34 41t50.5 25t69.5 10q59 -1 98.5 -37.5t37.5 -87.5q-1 -13 -14 -23.5t-29 -10.5q-6 0 -16 4q-16 8 -18 33t1.5 49.5t-13 44t-58.5 18.5q-16 0 -29.5 -6t-22.5 -17.5t-16 -23.5t-11 -31t-6.5 -33t-3 -35.5t-1 -33.5t0 -32
t0.5 -26v-59h135v-14h-135v-231q0 -149 27 -173q14 -12 37 -17h-211q14 4 24.5 15t16.5 28.5t10 34t5 40t1 39t-0.5 37.5t-0.5 28v199h-93v14zM418 468q84 8 162 8l1 -188l-1 -139q0 -102 13 -125q11 -19 36 -24h-192q26 5 37 25q15 28 15 137v53.5v51v43t-1 40.5t-3 32
t-5 29t-7 21q-18 28 -55 36zM468 629q0 23 17 39.5t42 16.5q26 0 43.5 -16.5t17.5 -39.5q0 -24 -17.5 -41.5t-43.5 -17.5q-25 0 -42 17.5t-17 41.5z" />
    <glyph glyph-name="fl" unicode="&#xfb02;" horiz-adv-x="693" 
d="M21 435h93q0 39 0.5 63t4.5 60.5t11 59t21 48.5t34 41t50.5 25t69.5 10q59 -1 98.5 -37.5t37.5 -87.5q-1 -13 -14 -23.5t-29 -10.5q-6 0 -16 4q-16 8 -18 33t1.5 49.5t-13 44t-58.5 18.5q-16 0 -29.5 -6t-22.5 -17.5t-16 -23.5t-11 -31t-6.5 -33t-3 -35.5t-1 -33.5t0 -32
t0.5 -26v-59h135v-14h-135v-231q0 -149 27 -173q14 -12 37 -17h-211q14 4 24.5 15t16.5 28.5t10 34t5 40t1 39t-0.5 37.5t-0.5 28v199h-93v14zM451 726q72 7 153 7v-564q0 -116 13 -143q11 -19 37 -26h-192q26 8 36 25q15 28 15 144v389q0 122 -14 141q-4 10 -17 16l-1 1
q-15 9 -31 10h1z" />
    </font>
</defs>
</svg>
